<svg fill-rule="evenodd" height="297.526" preserveAspectRatio="xMidYMid" stroke-linejoin="round" stroke-width="28.222" viewBox="3634 15342 14197.37 6997.3709" width="603.6677" xmlns="http://www.w3.org/2000/svg"><defs><font horiz-adv-x="2048" horiz-origin-x="0" horiz-origin-y="0" vert-adv-y="1024" vert-origin-x="512" vert-origin-y="768"><font-face ascent="1852" descent="437" units-per-em="2048"/><missing-glyph d="M0 0 2047 0 2047 2047 0 2047 0 0Z" horiz-adv-x="2048"/><glyph d="M40 0 40 146 716 922C639 918 572 916 513 916L80 916 80 1062 948 1062 948 943 373 269 262 146C343 152 418 155 489 155L980 155 980 0 40 0ZM398 1194 398 1418 621 1418 621 1194 398 1194Z" horiz-adv-x="953" unicode="&#x17c;"/><glyph d="M63 317 241 345C251 274 279 219 325 181 370 143 434 124 516 124 599 124 660 141 700 175 740 208 760 248 760 293 760 334 742 366 707 389 682 405 621 425 523 450 391 483 300 512 249 537 198 561 159 595 133 638 106 681 93 728 93 780 93 827 104 871 126 912 147 952 177 985 214 1012 242 1033 280 1050 329 1065 377 1079 429 1086 484 1086 567 1086 641 1074 704 1050 767 1026 813 994 843 953 873 912 894 857 905 788L729 764C721 819 698 861 660 892 621 923 567 938 497 938 414 938 355 924 320 897 285 870 267 838 267 801 267 778 274 757 289 738 304 719 327 703 358 690 376 683 429 668 517 644 644 610 733 582 784 561 834 539 873 507 902 466 931 425 945 373 945 312 945 252 928 196 893 143 858 90 807 49 741 20 675-9 600-24 517-24 379-24 274 5 202 62 129 119 83 204 63 317ZM394 1194 527 1474 763 1474 543 1194 394 1194Z" horiz-adv-x="901" unicode="&#x15b;"/><glyph d="M133 574 3 464 3 622 133 732 133 1466 312 1466 312 884 447 999 447 842 312 727 312 0 133 0 133 574Z" horiz-adv-x="451" unicode="&#x142;"/><glyph d="M862 342 1048 319C1019 210 964 126 885 66 806 6 704-24 581-24 426-24 303 24 212 120 121 215 75 349 75 522 75 701 121 839 213 938 305 1037 424 1086 571 1086 713 1086 829 1038 919 941 1009 844 1054 708 1054 533 1054 522 1054 506 1053 485L261 485C268 368 301 279 360 217 419 155 493 124 582 124 648 124 704 141 751 176 798 211 835 266 862 342ZM271 633 864 633C856 722 833 789 796 834 739 903 664 938 573 938 490 938 421 910 365 855 308 800 277 726 271 633ZM735 0C697-23 668-52 647-86 626-121 615-156 615-191 615-219 623-243 638-262 653-281 678-291 713-291 728-291 744-289 760-284 776-280 791-274 804-267L804-395C755-418 710-430 668-430 634-430 604-425 579-415 554-406 533-392 516-375 499-358 486-339 478-317 469-295 465-271 465-246 465-203 477-160 501-117 525-74 559-35 603 0L735 0Z" horiz-adv-x="993" unicode="&#x119;"/><glyph d="M828 389 1005 366C986 244 936 149 857 80 777 11 679-24 563-24 418-24 301 24 213 119 124 214 80 350 80 527 80 642 99 742 137 828 175 914 233 979 311 1022 388 1065 473 1086 564 1086 679 1086 774 1057 847 999 920 940 967 857 988 750L813 723C796 794 767 848 725 884 682 920 631 938 571 938 480 938 407 906 350 841 293 776 265 673 265 532 265 389 292 286 347 221 402 156 473 124 561 124 632 124 691 146 738 189 785 232 815 299 828 389ZM424 1194 557 1474 793 1474 573 1194 424 1194Z" horiz-adv-x="941" unicode="&#x107;"/><glyph d="M828 131C761 74 697 34 636 11 574-12 508-24 437-24 320-24 231 5 168 62 105 119 74 191 74 280 74 332 86 380 110 423 133 466 164 500 203 526 241 552 284 572 332 585 367 594 421 603 492 612 637 629 744 650 813 674 814 699 814 714 814 721 814 794 797 846 763 876 717 917 649 937 558 937 473 937 411 922 371 893 330 863 300 810 281 735L105 759C121 834 147 895 184 942 221 988 274 1024 343 1049 412 1074 493 1086 584 1086 675 1086 748 1075 805 1054 862 1033 903 1006 930 974 957 941 975 900 986 851 992 820 995 765 995 685L995 445C995 278 999 172 1007 128 1014 83 1029 41 1052 0L864 0C845 37 833 81 828 131ZM813 533C748 506 650 484 519 465 445 454 393 442 362 429 331 416 308 396 291 371 274 345 266 316 266 285 266 237 284 197 321 165 357 133 410 117 480 117 549 117 611 132 665 163 719 193 759 234 784 287 803 328 813 388 813 467L813 533ZM1015 0C977-23 948-52 927-86 906-121 895-156 895-191 895-219 903-243 918-262 933-281 958-291 993-291 1008-291 1024-289 1040-284 1056-280 1071-274 1084-267L1084-395C1035-418 990-430 948-430 914-430 884-425 859-415 834-406 813-392 796-375 779-358 766-339 758-317 749-295 745-271 745-246 745-203 757-160 781-117 805-74 839-35 883 0L1015 0Z" horiz-adv-x="1033" unicode="&#x105;"/><glyph d="M68 531C68 728 123 873 232 968 323 1047 435 1086 566 1086 712 1086 831 1038 924 943 1017 847 1063 715 1063 546 1063 409 1043 302 1002 224 961 145 901 84 823 41 744-2 659-24 566-24 417-24 297 24 206 119 114 214 68 352 68 531ZM253 531C253 395 283 293 342 226 401 158 476 124 566 124 655 124 730 158 789 226 848 294 878 398 878 537 878 668 848 768 789 836 729 903 655 937 566 937 476 937 401 903 342 836 283 769 253 667 253 531ZM466 1194 599 1474 835 1474 615 1194 466 1194Z" horiz-adv-x="1007" unicode="&#xf3;"/><glyph d="M40 0 40 146 716 922C639 918 572 916 513 916L80 916 80 1062 948 1062 948 943 373 269 262 146C343 152 418 155 489 155L980 155 980 0 40 0Z" horiz-adv-x="953" unicode="&#x7a;"/><glyph d="M127-409 107-240C146-251 181-256 210-256 250-256 282-249 306-236 330-223 350-204 365-180 376-162 395-117 420-46 423-36 429-21 436-2L33 1062 227 1062 448 447C477 369 502 287 525 201 546 284 570 364 599 443L826 1062 1006 1062 602-18C559-135 525-215 501-259 469-318 432-362 391-389 350-417 300-431 243-431 208-431 170-424 127-409Z" horiz-adv-x="980" unicode="&#x79;"/><glyph d="M331 0 6 1062 192 1062 361 449 424 221C427 232 445 305 479 440L648 1062 833 1062 992 446 1045 243 1106 448 1288 1062 1463 1062 1131 0 944 0 775 636 734 817 519 0 331 0Z" horiz-adv-x="1443" unicode="&#x77;"/><glyph d="M831 0 831 156C748 36 636-24 494-24 431-24 373-12 319 12 264 36 224 66 198 103 171 139 153 183 142 236 135 271 131 327 131 404L131 1062 311 1062 311 473C311 379 315 316 322 283 333 236 357 199 394 172 431 145 476 131 530 131 584 131 635 145 682 173 729 200 763 238 783 286 802 333 812 402 812 493L812 1062 992 1062 992 0 831 0Z" horiz-adv-x="874" unicode="&#x75;"/><glyph d="M528 161 554 2C503-9 458-14 418-14 353-14 302-4 266 17 230 38 205 65 190 99 175 132 168 203 168 311L168 922 36 922 36 1062 168 1062 168 1325 347 1433 347 1062 528 1062 528 922 347 922 347 301C347 250 350 217 357 202 363 187 373 176 388 167 402 158 422 154 449 154 469 154 495 156 528 161Z" horiz-adv-x="531" unicode="&#x74;"/><glyph d="M63 317 241 345C251 274 279 219 325 181 370 143 434 124 516 124 599 124 660 141 700 175 740 208 760 248 760 293 760 334 742 366 707 389 682 405 621 425 523 450 391 483 300 512 249 537 198 561 159 595 133 638 106 681 93 728 93 780 93 827 104 871 126 912 147 952 177 985 214 1012 242 1033 280 1050 329 1065 377 1079 429 1086 484 1086 567 1086 641 1074 704 1050 767 1026 813 994 843 953 873 912 894 857 905 788L729 764C721 819 698 861 660 892 621 923 567 938 497 938 414 938 355 924 320 897 285 870 267 838 267 801 267 778 274 757 289 738 304 719 327 703 358 690 376 683 429 668 517 644 644 610 733 582 784 561 834 539 873 507 902 466 931 425 945 373 945 312 945 252 928 196 893 143 858 90 807 49 741 20 675-9 600-24 517-24 379-24 274 5 202 62 129 119 83 204 63 317Z" horiz-adv-x="901" unicode="&#x73;"/><glyph d="M133 0 133 1062 295 1062 295 901C336 976 375 1026 410 1050 445 1074 483 1086 525 1086 586 1086 647 1067 710 1028L648 861C604 887 560 900 516 900 477 900 441 888 410 865 379 841 356 808 343 766 323 702 313 632 313 556L313 0 133 0Z" horiz-adv-x="597" unicode="&#x72;"/><glyph d="M135-407 135 1062 299 1062 299 924C338 978 381 1019 430 1046 479 1073 538 1086 607 1086 698 1086 778 1063 847 1016 916 969 969 904 1004 819 1039 734 1057 640 1057 539 1057 430 1038 333 999 246 960 159 903 92 829 46 754-1 676-24 594-24 534-24 480-11 433 14 385 39 346 71 315 110L315-407 135-407ZM298 525C298 388 326 287 381 222 436 157 503 124 582 124 662 124 731 158 788 226 845 293 873 398 873 540 873 675 845 777 790 844 734 911 667 945 590 945 513 945 446 909 387 838 328 766 298 662 298 525Z" horiz-adv-x="927" unicode="&#x70;"/><glyph d="M68 531C68 728 123 873 232 968 323 1047 435 1086 566 1086 712 1086 831 1038 924 943 1017 847 1063 715 1063 546 1063 409 1043 302 1002 224 961 145 901 84 823 41 744-2 659-24 566-24 417-24 297 24 206 119 114 214 68 352 68 531ZM253 531C253 395 283 293 342 226 401 158 476 124 566 124 655 124 730 158 789 226 848 294 878 398 878 537 878 668 848 768 789 836 729 903 655 937 566 937 476 937 401 903 342 836 283 769 253 667 253 531Z" horiz-adv-x="1007" unicode="&#x6f;"/><glyph d="M135 0 135 1062 297 1062 297 911C375 1028 488 1086 635 1086 699 1086 758 1075 812 1052 865 1029 905 998 932 961 959 924 977 879 988 828 995 795 998 736 998 653L998 0 818 0 818 646C818 719 811 774 797 811 783 847 758 876 723 898 687 919 645 930 597 930 520 930 454 906 399 857 343 808 315 716 315 580L315 0 135 0Z" horiz-adv-x="874" unicode="&#x6e;"/><glyph d="M135 0 135 1062 296 1062 296 913C329 965 374 1007 429 1039 484 1070 547 1086 618 1086 697 1086 761 1070 812 1037 862 1004 897 959 918 900 1002 1024 1111 1086 1246 1086 1351 1086 1432 1057 1489 999 1546 940 1574 850 1574 729L1574 0 1395 0 1395 669C1395 741 1389 793 1378 825 1366 856 1345 882 1314 901 1283 920 1247 930 1206 930 1131 930 1069 905 1020 856 971 806 946 726 946 617L946 0 766 0 766 690C766 770 751 830 722 870 693 910 645 930 578 930 527 930 481 917 438 890 395 863 363 824 344 773 325 722 315 648 315 551L315 0 135 0Z" horiz-adv-x="1470" unicode="&#x6d;"/><glyph d="M131 0 131 1466 311 1466 311 0 131 0Z" horiz-adv-x="200" unicode="&#x6c;"/><glyph d="M134 1257 134 1466 314 1466 314 1257 134 1257ZM-94-412-60-259C-24-268 4-273 25-273 62-273 89-261 107-236 125-212 134-151 134-54L134 1062 314 1062 314-58C314-189 297-280 263-331 220-398 148-431 47-431-2-431-49-425-94-412Z" horiz-adv-x="438" unicode="&#x6a;"/><glyph d="M136 1259 136 1466 316 1466 316 1259 136 1259ZM136 0 136 1062 316 1062 316 0 136 0Z" horiz-adv-x="187" unicode="&#x69;"/><glyph d="M102-88 277-114C284-168 305-207 338-232 383-265 444-282 521-282 604-282 669-265 714-232 759-199 790-152 806-92 815-55 820 22 819 139 740 46 642 0 525 0 379 0 266 53 186 158 106 263 66 390 66 537 66 638 84 732 121 818 158 903 211 969 281 1016 350 1063 432 1086 526 1086 651 1086 755 1035 836 934L836 1062 1002 1062 1002 144C1002-21 985-138 952-207 918-276 865-331 792-371 719-411 629-431 522-431 395-431 293-402 215-345 137-288 99-203 102-88ZM251 550C251 411 279 309 334 245 389 181 459 149 542 149 625 149 694 181 750 245 806 308 834 408 834 544 834 674 805 772 748 838 690 904 620 937 539 937 459 937 391 905 335 840 279 775 251 678 251 550Z" horiz-adv-x="940" unicode="&#x67;"/><glyph d="M862 342 1048 319C1019 210 964 126 885 66 806 6 704-24 581-24 426-24 303 24 212 120 121 215 75 349 75 522 75 701 121 839 213 938 305 1037 424 1086 571 1086 713 1086 829 1038 919 941 1009 844 1054 708 1054 533 1054 522 1054 506 1053 485L261 485C268 368 301 279 360 217 419 155 493 124 582 124 648 124 704 141 751 176 798 211 835 266 862 342ZM271 633 864 633C856 722 833 789 796 834 739 903 664 938 573 938 490 938 421 910 365 855 308 800 277 726 271 633Z" horiz-adv-x="993" unicode="&#x65;"/><glyph d="M824 0 824 134C757 29 658-24 527-24 442-24 365-1 294 46 223 93 168 158 129 242 90 325 70 421 70 530 70 636 88 732 123 819 158 905 211 971 282 1017 353 1063 432 1086 519 1086 583 1086 640 1073 690 1046 740 1019 781 983 812 940L812 1466 991 1466 991 0 824 0ZM255 530C255 394 284 292 341 225 398 158 466 124 544 124 623 124 690 156 745 221 800 285 827 383 827 515 827 660 799 767 743 835 687 903 618 937 536 937 456 937 389 904 336 839 282 774 255 671 255 530Z" horiz-adv-x="927" unicode="&#x64;"/><glyph d="M828 389 1005 366C986 244 936 149 857 80 777 11 679-24 563-24 418-24 301 24 213 119 124 214 80 350 80 527 80 642 99 742 137 828 175 914 233 979 311 1022 388 1065 473 1086 564 1086 679 1086 774 1057 847 999 920 940 967 857 988 750L813 723C796 794 767 848 725 884 682 920 631 938 571 938 480 938 407 906 350 841 293 776 265 673 265 532 265 389 292 286 347 221 402 156 473 124 561 124 632 124 691 146 738 189 785 232 815 299 828 389Z" horiz-adv-x="941" unicode="&#x63;"/><glyph d="M828 131C761 74 697 34 636 11 574-12 508-24 437-24 320-24 231 5 168 62 105 119 74 191 74 280 74 332 86 380 110 423 133 466 164 500 203 526 241 552 284 572 332 585 367 594 421 603 492 612 637 629 744 650 813 674 814 699 814 714 814 721 814 794 797 846 763 876 717 917 649 937 558 937 473 937 411 922 371 893 330 863 300 810 281 735L105 759C121 834 147 895 184 942 221 988 274 1024 343 1049 412 1074 493 1086 584 1086 675 1086 748 1075 805 1054 862 1033 903 1006 930 974 957 941 975 900 986 851 992 820 995 765 995 685L995 445C995 278 999 172 1007 128 1014 83 1029 41 1052 0L864 0C845 37 833 81 828 131ZM813 533C748 506 650 484 519 465 445 454 393 442 362 429 331 416 308 396 291 371 274 345 266 316 266 285 266 237 284 197 321 165 357 133 410 117 480 117 549 117 611 132 665 163 719 193 759 234 784 287 803 328 813 388 813 467L813 533Z" horiz-adv-x="993" unicode="&#x61;"/><glyph d="M99 714C99 957 164 1148 295 1286 426 1423 594 1492 801 1492 936 1492 1058 1460 1167 1395 1276 1330 1359 1240 1416 1125 1473 1009 1501 878 1501 731 1501 582 1471 449 1411 332 1351 215 1266 126 1156 66 1046 5 927-25 800-25 662-25 539 8 430 75 321 142 239 233 183 348 127 463 99 585 99 714ZM299 711C299 534 347 395 442 294 537 192 656 141 799 141 945 141 1065 192 1160 295 1254 398 1301 543 1301 732 1301 851 1281 956 1241 1045 1200 1134 1141 1203 1064 1252 986 1301 899 1325 802 1325 665 1325 547 1278 448 1184 349 1089 299 932 299 711Z" horiz-adv-x="1416" unicode="&#x4f;"/><glyph d="M362 795C287 822 232 861 196 912 160 963 142 1023 142 1094 142 1201 180 1290 257 1363 334 1436 436 1472 563 1472 691 1472 794 1435 872 1361 950 1286 989 1196 989 1089 989 1021 971 962 936 912 900 861 846 822 773 795 863 766 932 718 979 653 1026 588 1049 510 1049 419 1049 294 1005 188 916 103 827 18 711-25 566-25 421-25 305 18 216 104 127 189 83 296 83 424 83 519 107 599 156 664 204 728 273 772 362 795ZM326 1100C326 1031 348 974 393 930 438 886 496 864 567 864 636 864 693 886 738 930 782 973 804 1027 804 1090 804 1156 781 1212 736 1257 690 1302 633 1324 565 1324 496 1324 439 1302 394 1258 349 1214 326 1161 326 1100ZM268 423C268 372 280 322 305 274 329 226 365 189 413 163 461 136 513 123 568 123 654 123 725 151 781 206 837 261 865 332 865 417 865 504 836 575 779 632 721 689 649 717 562 717 477 717 407 689 352 633 296 577 268 507 268 423Z" horiz-adv-x="980" unicode="&#x38;"/><glyph d="M1019 1107 840 1093C824 1164 801 1215 772 1247 723 1298 663 1324 592 1324 535 1324 484 1308 441 1276 384 1235 340 1174 307 1095 274 1016 257 903 256 756 299 822 352 871 415 903 478 935 543 951 612 951 732 951 834 907 919 819 1003 730 1045 616 1045 476 1045 384 1025 299 986 220 946 141 891 80 822 38 753-4 674-25 586-25 436-25 314 30 219 141 124 251 77 433 77 686 77 969 129 1175 234 1304 325 1416 448 1472 603 1472 718 1472 813 1440 887 1375 960 1310 1004 1221 1019 1107ZM284 475C284 413 297 354 324 297 350 240 387 197 434 168 481 138 531 123 583 123 659 123 724 154 779 215 834 276 861 360 861 465 861 566 834 646 780 705 726 763 658 792 576 792 495 792 426 763 369 705 312 646 284 570 284 475Z" horiz-adv-x="980" unicode="&#x36;"/><glyph d="M662 0 662 351 26 351 26 516 695 1466 842 1466 842 516 1040 516 1040 351 842 351 842 0 662 0ZM662 516 662 1177 203 516 662 516Z" horiz-adv-x="1020" unicode="&#x34;"/><glyph d="M1031 173 1031 0 62 0C61 43 68 85 83 125 108 191 147 256 202 320 256 384 334 458 437 542 596 673 704 776 760 853 816 929 844 1001 844 1069 844 1140 819 1201 768 1250 717 1299 650 1323 568 1323 481 1323 412 1297 360 1245 308 1193 282 1121 281 1029L96 1048C109 1186 156 1291 239 1364 322 1436 433 1472 572 1472 713 1472 824 1433 906 1355 988 1277 1029 1180 1029 1065 1029 1006 1017 949 993 892 969 835 929 776 874 713 818 650 725 564 596 455 488 364 419 303 388 271 357 238 332 206 312 173L1031 173Z" horiz-adv-x="980" unicode="&#x32;"/><glyph d="M763 0 583 0 583 1147C540 1106 483 1064 413 1023 342 982 279 951 223 930L223 1104C324 1151 412 1209 487 1276 562 1343 616 1409 647 1472L763 1472 763 0Z" horiz-adv-x="556" unicode="&#x31;"/><glyph d="M85 723C85 896 103 1036 139 1142 174 1247 227 1329 298 1386 368 1443 456 1472 563 1472 642 1472 711 1456 770 1425 829 1393 878 1347 917 1288 956 1228 986 1155 1008 1070 1030 984 1041 868 1041 723 1041 551 1023 412 988 307 953 201 900 119 830 62 759 4 670-25 563-25 422-25 311 26 230 127 133 249 85 448 85 723ZM270 723C270 482 298 322 355 243 411 163 480 123 563 123 646 123 715 163 772 243 828 323 856 483 856 723 856 964 828 1125 772 1204 715 1283 645 1323 561 1323 478 1323 412 1288 363 1218 301 1129 270 964 270 723Z" horiz-adv-x="967" unicode="&#x30;"/><glyph horiz-adv-x="569" unicode="&#x20;"/></font><font horiz-adv-x="2048" horiz-origin-x="0" horiz-origin-y="0" vert-adv-y="1024" vert-origin-x="512" vert-origin-y="768"><font-face ascent="1852" descent="437" units-per-em="2048"/><missing-glyph d="M0 0 2047 0 2047 2047 0 2047 0 0Z" horiz-adv-x="2048"/><glyph d="M0-410 11-240C48-251 85-256 120-256 157-256 186-248 209-231 238-209 270-168 305-107L363-3 186 1062 364 1062 444 525C460 419 474 313 485 207L960 1062 1149 1062 472-141C407-258 349-336 298-374 247-412 189-431 123-431 81-431 40-424 0-410Z" horiz-adv-x="1165" unicode="&#x79;"/><glyph d="M270 0 159 1062 333 1062 381 585 400 317C401 297 403 257 406 196 426 264 443 316 457 353 471 389 493 441 524 508L777 1062 974 1062 1009 531C1014 450 1018 343 1019 208 1052 297 1107 421 1182 580L1410 1062 1591 1062 1072 0 884 0 844 623C841 662 839 737 838 849 811 778 778 701 741 618L460 0 270 0Z" horiz-adv-x="1429" unicode="&#x77;"/><glyph d="M793 192C666 48 535-24 402-24 320-24 254 0 204 47 153 94 128 151 128 219 128 264 139 340 162 449L290 1062 471 1062 329 383C317 326 311 282 311 251 311 211 323 180 348 158 372 135 408 124 455 124 506 124 555 136 604 161 652 186 694 219 729 261 764 303 792 353 814 410 829 447 846 511 865 603L961 1062 1142 1062 920 0 753 0 793 192Z" horiz-adv-x="1046" unicode="&#x75;"/><glyph d="M491 147 461-1C418-12 376-18 335-18 263-18 206 0 163 35 131 62 115 98 115 144 115 167 124 221 141 305L270 922 127 922 156 1062 299 1062 354 1323 561 1448 480 1062 658 1062 628 922 451 922 328 335C313 260 305 216 305 201 305 180 311 163 324 152 336 141 356 135 384 135 424 135 460 139 491 147Z" horiz-adv-x="556" unicode="&#x74;"/><glyph d="M85 363 266 374C266 322 274 278 290 241 306 204 336 174 379 151 422 128 472 116 529 116 609 116 669 132 709 164 749 196 769 234 769 277 769 308 757 338 733 366 708 394 648 429 553 470 457 511 396 539 369 556 324 583 291 616 268 653 245 690 234 732 234 780 234 864 267 936 334 996 401 1056 494 1086 614 1086 747 1086 849 1055 919 994 988 932 1024 851 1027 750L850 738C847 802 825 853 782 890 739 927 679 946 601 946 538 946 490 932 455 903 420 874 403 843 403 810 403 777 418 747 448 722 468 705 520 678 603 642 742 582 829 535 865 500 922 445 951 377 951 298 951 245 935 194 903 143 870 92 821 52 755 22 688-9 610-24 520-24 397-24 293 6 207 67 121 128 80 226 85 363Z" horiz-adv-x="967" unicode="&#x73;"/><glyph d="M68 0 290 1062 450 1062 405 845C460 927 513 988 566 1027 618 1066 671 1086 726 1086 762 1086 806 1073 859 1047L785 879C754 902 719 913 682 913 619 913 554 878 487 807 420 736 368 609 330 426L240 0 68 0Z" horiz-adv-x="808" unicode="&#x72;"/><glyph d="M-21-407 286 1062 453 1062 422 914C484 979 540 1024 589 1049 638 1074 689 1086 744 1086 845 1086 929 1049 996 976 1063 902 1096 796 1096 659 1096 548 1078 448 1041 357 1004 266 959 192 906 137 853 82 799 41 744 15 689-11 633-24 576-24 449-24 350 41 280 170L160-407-21-407ZM337 434C337 355 343 300 354 269 371 226 398 191 436 164 474 137 518 124 568 124 672 124 756 183 820 300 884 417 916 536 916 658 916 748 895 818 852 867 809 916 755 940 691 940 645 940 602 928 563 904 524 879 487 843 454 795 420 746 392 687 370 617 348 547 337 486 337 434Z" horiz-adv-x="1125" unicode="&#x70;"/><glyph d="M100 403C100 610 161 782 283 918 384 1030 516 1086 679 1086 807 1086 910 1046 989 966 1067 886 1106 778 1106 642 1106 520 1081 407 1032 302 983 197 913 116 822 60 731 4 635-24 534-24 451-24 376-6 309 29 241 64 189 114 154 179 118 244 100 318 100 403ZM281 421C281 321 305 245 353 194 401 142 462 116 536 116 575 116 613 124 651 140 689 155 724 179 757 211 790 243 818 280 841 321 864 362 882 406 896 453 917 519 927 582 927 643 927 739 903 814 855 867 806 920 745 946 672 946 615 946 564 933 517 906 470 879 428 839 391 787 353 735 325 675 308 606 290 537 281 475 281 421Z" horiz-adv-x="1019" unicode="&#x6f;"/><glyph d="M68 0 290 1062 454 1062 415 877C486 950 553 1003 615 1036 677 1069 740 1086 805 1086 891 1086 959 1063 1008 1016 1057 969 1081 907 1081 829 1081 790 1072 728 1055 643L920 0 739 0 880 673C894 738 901 787 901 818 901 853 889 882 865 904 840 926 805 937 759 937 666 937 584 904 512 837 439 770 386 656 352 494L249 0 68 0Z" horiz-adv-x="1033" unicode="&#x6e;"/><glyph d="M67 0 289 1062 470 1062 433 887C500 962 561 1014 614 1043 667 1072 724 1086 786 1086 852 1086 907 1069 952 1034 996 999 1025 950 1039 887 1093 954 1150 1004 1210 1037 1269 1070 1332 1086 1398 1086 1487 1086 1553 1065 1598 1023 1642 981 1664 922 1664 846 1664 813 1656 759 1641 684L1498 0 1317 0 1463 702C1476 759 1482 800 1482 825 1482 860 1471 887 1449 907 1427 927 1396 937 1356 937 1302 937 1247 921 1191 888 1135 855 1092 813 1061 760 1030 707 1002 625 979 515L871 0 690 0 840 717C851 766 856 800 856 821 856 856 845 884 824 905 802 926 774 937 739 937 688 937 634 921 578 888 521 855 475 810 440 752 405 693 376 610 353 502L248 0 67 0Z" horiz-adv-x="1589" unicode="&#x6d;"/><glyph d="M54 0 360 1466 541 1466 235 0 54 0Z" horiz-adv-x="490" unicode="&#x6c;"/><glyph d="M70 0 377 1466 557 1466 367 557 895 1062 1134 1062 681 666 955 0 757 0 545 545 325 355 251 0 70 0Z" horiz-adv-x="1086" unicode="&#x6b;"/><glyph d="M325 1261 368 1466 548 1466 505 1261 325 1261ZM61 0 283 1062 464 1062 242 0 61 0Z" horiz-adv-x="504" unicode="&#x69;"/><glyph d="M68 0 374 1466 555 1466 438 903C505 968 568 1015 626 1044 684 1072 744 1086 805 1086 893 1086 961 1063 1010 1017 1059 970 1083 909 1083 833 1083 796 1072 727 1051 627L920 0 739 0 874 643C893 736 903 795 903 819 903 854 891 882 867 904 843 926 808 937 763 937 698 937 635 920 576 886 517 851 470 804 437 745 403 685 372 589 344 456L249 0 68 0Z" horiz-adv-x="1033" unicode="&#x68;"/><glyph d="M848 361 1024 343C999 256 941 173 850 94 759 15 650-24 524-24 445-24 373-6 308 31 242 67 192 120 158 189 123 258 106 337 106 426 106 542 133 655 187 764 240 873 310 954 395 1007 480 1060 573 1086 672 1086 799 1086 900 1047 976 968 1051 889 1089 782 1089 646 1089 594 1084 541 1075 486L293 486C290 465 289 447 289 430 289 331 312 255 358 203 403 150 459 124 525 124 587 124 648 144 708 185 768 226 815 284 848 361ZM322 624 918 624C919 643 919 656 919 664 919 755 896 824 851 873 806 921 747 945 676 945 599 945 528 918 465 865 401 812 353 731 322 624Z" horiz-adv-x="993" unicode="&#x65;"/><glyph d="M784 154C681 35 573-24 460-24 359-24 276 13 209 88 142 162 108 270 108 411 108 540 135 659 188 766 241 873 307 953 387 1006 466 1059 546 1086 626 1086 758 1086 858 1022 925 895L1045 1466 1225 1466 919 0 752 0 784 154ZM288 445C288 371 295 313 310 270 325 227 350 192 385 164 420 135 463 121 512 121 594 121 668 164 735 249 824 362 869 502 869 669 869 753 847 819 803 866 759 913 704 937 637 937 594 937 554 927 519 908 483 889 448 856 413 810 378 763 348 704 324 633 300 562 288 499 288 445Z" horiz-adv-x="1125" unicode="&#x64;"/><glyph d="M801 387 982 368C937 235 872 137 789 73 705 8 610-24 503-24 388-24 294 13 223 88 151 163 115 267 115 401 115 517 138 631 184 743 230 855 296 940 382 999 467 1057 565 1086 675 1086 789 1086 879 1054 946 990 1013 925 1046 840 1046 734L868 722C867 789 848 842 810 880 771 918 721 937 658 937 585 937 522 914 469 868 416 822 374 752 344 659 313 565 298 475 298 388 298 297 318 229 358 184 398 139 447 116 506 116 565 116 621 138 675 183 728 228 770 296 801 387Z" horiz-adv-x="953" unicode="&#x63;"/><glyph d="M68 0 374 1466 555 1466 446 942C503 995 555 1032 602 1054 649 1075 697 1086 748 1086 847 1086 930 1049 997 975 1063 901 1096 793 1096 652 1096 558 1083 472 1056 394 1029 316 996 251 957 198 918 145 877 102 835 71 793 39 750 15 706 0 662-16 620-24 579-24 509-24 447-5 394 32 341 69 299 125 269 201L227 0 68 0ZM336 436 335 402C335 311 357 242 400 195 443 148 497 124 562 124 625 124 684 146 737 191 790 235 833 304 867 398 901 492 918 579 918 658 918 747 897 817 854 866 811 915 757 940 694 940 629 940 569 915 514 865 459 814 414 737 377 632 350 554 336 489 336 436Z" horiz-adv-x="1033" unicode="&#x62;"/><glyph d="M784 132C721 78 661 39 603 14 545-11 483-24 417-24 319-24 240 5 180 63 120 120 90 194 90 284 90 343 104 396 131 442 158 487 193 524 238 552 283 579 337 599 402 611 443 619 520 625 634 630 747 635 829 647 878 666 892 715 899 756 899 789 899 831 884 864 853 888 811 921 750 938 669 938 593 938 531 921 483 888 434 854 399 806 377 744L194 760C231 865 291 946 372 1002 453 1058 555 1086 678 1086 809 1086 913 1055 990 992 1049 945 1078 885 1078 810 1078 753 1070 688 1053 613L994 349C975 265 966 197 966 144 966 111 973 63 988 0L805 0C795 35 788 79 784 132ZM851 538C826 528 799 520 770 515 741 510 692 504 624 498 519 489 444 477 401 463 358 448 325 425 303 394 281 363 270 328 270 290 270 239 288 198 323 165 358 132 407 116 472 116 532 116 590 132 645 164 700 195 744 239 776 296 808 353 833 433 851 538Z" horiz-adv-x="1007" unicode="&#x61;"/><glyph d="M90 0 396 1466 637 1466 785 516C804 391 817 272 823 157 864 256 932 389 1027 558L1541 1466 1786 1466 1480 0 1287 0 1440 713C1475 878 1526 1062 1592 1267 1550 1172 1498 1069 1436 959L890 0 701 0 554 940C541 1026 531 1126 525 1241 508 1112 492 1010 476 935L281 0 90 0Z" horiz-adv-x="1734" unicode="&#x4d;"/><glyph d="M92 0 399 1466 1457 1466 1422 1299 560 1299 464 843 1304 843 1269 676 429 676 323 166 1246 166 1211 0 92 0Z" horiz-adv-x="1376" unicode="&#x45;"/><glyph d="M1235 516 1429 489C1368 320 1278 192 1161 105 1044 18 912-25 766-25 588-25 447 29 343 138 238 247 186 402 186 605 186 869 265 1087 424 1260 565 1414 741 1491 951 1491 1106 1491 1232 1449 1329 1366 1425 1283 1481 1171 1496 1030L1313 1013C1294 1119 1254 1198 1194 1251 1133 1303 1055 1329 960 1329 781 1329 636 1249 525 1090 429 953 381 790 381 601 381 450 418 335 492 256 566 177 662 137 781 137 882 137 974 170 1056 236 1138 302 1198 395 1235 516Z" horiz-adv-x="1324" unicode="&#x43;"/><glyph d="M118 0 161 205 366 205 322 0 118 0Z" horiz-adv-x="265" unicode="&#x2e;"/><glyph horiz-adv-x="569" unicode="&#x20;"/></font>
</defs>
</svg>
