<svg fill-rule="evenodd" height="332.1795" preserveAspectRatio="xMidYMid" stroke-linejoin="round" stroke-width="28.222" viewBox="2689 6227 17672.85 7812.3712" width="751.444" xmlns="http://www.w3.org/2000/svg"><defs><font horiz-adv-x="2048" horiz-origin-x="0" horiz-origin-y="0" vert-adv-y="1024" vert-origin-x="512" vert-origin-y="768"><font-face ascent="1852" descent="423" units-per-em="2048"/><missing-glyph d="M0 0 2047 0 2047 2047 0 2047 0 0Z" horiz-adv-x="2048"/><glyph d="M128 947 140 1221 192 1466 398 1466 345 1221 240 947 128 947Z" horiz-adv-x="292" unicode="&#x2032;"/><glyph d="M239 0 239 205 444 205 444 0 239 0ZM922 0 922 205 1127 205 1127 0 922 0ZM1604 0 1604 205 1810 205 1810 0 1604 0Z" horiz-adv-x="1562" unicode="&#x2026;"/><glyph d="M828 389 1005 366C986 244 936 149 857 80 777 11 679-24 563-24 418-24 301 24 213 119 124 214 80 350 80 527 80 642 99 742 137 828 175 914 233 979 311 1022 388 1065 473 1086 564 1086 679 1086 774 1057 847 999 920 940 967 857 988 750L813 723C796 794 767 848 725 884 682 920 631 938 571 938 480 938 407 906 350 841 293 776 265 673 265 532 265 389 292 286 347 221 402 156 473 124 561 124 632 124 691 146 738 189 785 232 815 299 828 389ZM424 1194 557 1474 793 1474 573 1194 424 1194Z" horiz-adv-x="954" unicode="&#x107;"/><glyph d="M828 131C761 74 697 34 636 11 574-12 508-24 437-24 320-24 231 5 168 62 105 119 74 191 74 280 74 332 86 380 110 423 133 466 164 500 203 526 241 552 284 572 332 585 367 594 421 603 492 612 637 629 744 650 813 674 814 699 814 714 814 721 814 794 797 846 763 876 717 917 649 937 558 937 473 937 411 922 371 893 330 863 300 810 281 735L105 759C121 834 147 895 184 942 221 988 274 1024 343 1049 412 1074 493 1086 584 1086 675 1086 748 1075 805 1054 862 1033 903 1006 930 974 957 941 975 900 986 851 992 820 995 765 995 685L995 445C995 278 999 172 1007 128 1014 83 1029 41 1052 0L864 0C845 37 833 81 828 131ZM813 533C748 506 650 484 519 465 445 454 393 442 362 429 331 416 308 396 291 371 274 345 266 316 266 285 266 237 284 197 321 165 357 133 410 117 480 117 549 117 611 132 665 163 719 193 759 234 784 287 803 328 813 388 813 467L813 533ZM1015 0C977-23 948-52 927-86 906-121 895-156 895-191 895-219 903-243 918-262 933-281 958-291 993-291 1008-291 1024-289 1040-284 1056-280 1071-274 1084-267L1084-395C1035-418 990-430 948-430 914-430 884-425 859-415 834-406 813-392 796-375 779-358 766-339 758-317 749-295 745-271 745-246 745-203 757-160 781-117 805-74 839-35 883 0L1015 0Z" horiz-adv-x="1059" unicode="&#x105;"/><glyph d="M127-409 107-240C146-251 181-256 210-256 250-256 282-249 306-236 330-223 350-204 365-180 376-162 395-117 420-46 423-36 429-21 436-2L33 1062 227 1062 448 447C477 369 502 287 525 201 546 284 570 364 599 443L826 1062 1006 1062 602-18C559-135 525-215 501-259 469-318 432-362 391-389 350-417 300-431 243-431 208-431 170-424 127-409Z" horiz-adv-x="954" unicode="&#x79;"/><glyph d="M831 0 831 156C748 36 636-24 494-24 431-24 373-12 319 12 264 36 224 66 198 103 171 139 153 183 142 236 135 271 131 327 131 404L131 1062 311 1062 311 473C311 379 315 316 322 283 333 236 357 199 394 172 431 145 476 131 530 131 584 131 635 145 682 173 729 200 763 238 783 286 802 333 812 402 812 493L812 1062 992 1062 992 0 831 0Z" horiz-adv-x="874" unicode="&#x75;"/><glyph d="M528 161 554 2C503-9 458-14 418-14 353-14 302-4 266 17 230 38 205 65 190 99 175 132 168 203 168 311L168 922 36 922 36 1062 168 1062 168 1325 347 1433 347 1062 528 1062 528 922 347 922 347 301C347 250 350 217 357 202 363 187 373 176 388 167 402 158 422 154 449 154 469 154 495 156 528 161Z" horiz-adv-x="531" unicode="&#x74;"/><glyph d="M133 0 133 1062 295 1062 295 901C336 976 375 1026 410 1050 445 1074 483 1086 525 1086 586 1086 647 1067 710 1028L648 861C604 887 560 900 516 900 477 900 441 888 410 865 379 841 356 808 343 766 323 702 313 632 313 556L313 0 133 0Z" horiz-adv-x="583" unicode="&#x72;"/><glyph d="M135-407 135 1062 299 1062 299 924C338 978 381 1019 430 1046 479 1073 538 1086 607 1086 698 1086 778 1063 847 1016 916 969 969 904 1004 819 1039 734 1057 640 1057 539 1057 430 1038 333 999 246 960 159 903 92 829 46 754-1 676-24 594-24 534-24 480-11 433 14 385 39 346 71 315 110L315-407 135-407ZM298 525C298 388 326 287 381 222 436 157 503 124 582 124 662 124 731 158 788 226 845 293 873 398 873 540 873 675 845 777 790 844 734 911 667 945 590 945 513 945 446 909 387 838 328 766 298 662 298 525Z" horiz-adv-x="927" unicode="&#x70;"/><glyph d="M68 531C68 728 123 873 232 968 323 1047 435 1086 566 1086 712 1086 831 1038 924 943 1017 847 1063 715 1063 546 1063 409 1043 302 1002 224 961 145 901 84 823 41 744-2 659-24 566-24 417-24 297 24 206 119 114 214 68 352 68 531ZM253 531C253 395 283 293 342 226 401 158 476 124 566 124 655 124 730 158 789 226 848 294 878 398 878 537 878 668 848 768 789 836 729 903 655 937 566 937 476 937 401 903 342 836 283 769 253 667 253 531Z" horiz-adv-x="1006" unicode="&#x6f;"/><glyph d="M135 0 135 1062 297 1062 297 911C375 1028 488 1086 635 1086 699 1086 758 1075 812 1052 865 1029 905 998 932 961 959 924 977 879 988 828 995 795 998 736 998 653L998 0 818 0 818 646C818 719 811 774 797 811 783 847 758 876 723 898 687 919 645 930 597 930 520 930 454 906 399 857 343 808 315 716 315 580L315 0 135 0Z" horiz-adv-x="874" unicode="&#x6e;"/><glyph d="M135 0 135 1062 296 1062 296 913C329 965 374 1007 429 1039 484 1070 547 1086 618 1086 697 1086 761 1070 812 1037 862 1004 897 959 918 900 1002 1024 1111 1086 1246 1086 1351 1086 1432 1057 1489 999 1546 940 1574 850 1574 729L1574 0 1395 0 1395 669C1395 741 1389 793 1378 825 1366 856 1345 882 1314 901 1283 920 1247 930 1206 930 1131 930 1069 905 1020 856 971 806 946 726 946 617L946 0 766 0 766 690C766 770 751 830 722 870 693 910 645 930 578 930 527 930 481 917 438 890 395 863 363 824 344 773 325 722 315 648 315 551L315 0 135 0Z" horiz-adv-x="1483" unicode="&#x6d;"/><glyph d="M136 0 136 1466 316 1466 316 630 742 1062 975 1062 569 668 1016 0 794 0 443 543 316 421 316 0 136 0Z" horiz-adv-x="901" unicode="&#x6b;"/><glyph d="M134 1257 134 1466 314 1466 314 1257 134 1257ZM-94-412-60-259C-24-268 4-273 25-273 62-273 89-261 107-236 125-212 134-151 134-54L134 1062 314 1062 314-58C314-189 297-280 263-331 220-398 148-431 47-431-2-431-49-425-94-412Z" horiz-adv-x="425" unicode="&#x6a;"/><glyph d="M136 1259 136 1466 316 1466 316 1259 136 1259ZM136 0 136 1062 316 1062 316 0 136 0Z" horiz-adv-x="187" unicode="&#x69;"/><glyph d="M862 342 1048 319C1019 210 964 126 885 66 806 6 704-24 581-24 426-24 303 24 212 120 121 215 75 349 75 522 75 701 121 839 213 938 305 1037 424 1086 571 1086 713 1086 829 1038 919 941 1009 844 1054 708 1054 533 1054 522 1054 506 1053 485L261 485C268 368 301 279 360 217 419 155 493 124 582 124 648 124 704 141 751 176 798 211 835 266 862 342ZM271 633 864 633C856 722 833 789 796 834 739 903 664 938 573 938 490 938 421 910 365 855 308 800 277 726 271 633Z" horiz-adv-x="1006" unicode="&#x65;"/><glyph d="M824 0 824 134C757 29 658-24 527-24 442-24 365-1 294 46 223 93 168 158 129 242 90 325 70 421 70 530 70 636 88 732 123 819 158 905 211 971 282 1017 353 1063 432 1086 519 1086 583 1086 640 1073 690 1046 740 1019 781 983 812 940L812 1466 991 1466 991 0 824 0ZM255 530C255 394 284 292 341 225 398 158 466 124 544 124 623 124 690 156 745 221 800 285 827 383 827 515 827 660 799 767 743 835 687 903 618 937 536 937 456 937 389 904 336 839 282 774 255 671 255 530Z" horiz-adv-x="953" unicode="&#x64;"/><glyph d="M828 389 1005 366C986 244 936 149 857 80 777 11 679-24 563-24 418-24 301 24 213 119 124 214 80 350 80 527 80 642 99 742 137 828 175 914 233 979 311 1022 388 1065 473 1086 564 1086 679 1086 774 1057 847 999 920 940 967 857 988 750L813 723C796 794 767 848 725 884 682 920 631 938 571 938 480 938 407 906 350 841 293 776 265 673 265 532 265 389 292 286 347 221 402 156 473 124 561 124 632 124 691 146 738 189 785 232 815 299 828 389Z" horiz-adv-x="954" unicode="&#x63;"/><glyph d="M828 131C761 74 697 34 636 11 574-12 508-24 437-24 320-24 231 5 168 62 105 119 74 191 74 280 74 332 86 380 110 423 133 466 164 500 203 526 241 552 284 572 332 585 367 594 421 603 492 612 637 629 744 650 813 674 814 699 814 714 814 721 814 794 797 846 763 876 717 917 649 937 558 937 473 937 411 922 371 893 330 863 300 810 281 735L105 759C121 834 147 895 184 942 221 988 274 1024 343 1049 412 1074 493 1086 584 1086 675 1086 748 1075 805 1054 862 1033 903 1006 930 974 957 941 975 900 986 851 992 820 995 765 995 685L995 445C995 278 999 172 1007 128 1014 83 1029 41 1052 0L864 0C845 37 833 81 828 131ZM813 533C748 506 650 484 519 465 445 454 393 442 362 429 331 416 308 396 291 371 274 345 266 316 266 285 266 237 284 197 321 165 357 133 410 117 480 117 549 117 611 132 665 163 719 193 759 234 784 287 803 328 813 388 813 467L813 533Z" horiz-adv-x="1006" unicode="&#x61;"/><glyph d="M577 0 9 1466 219 1466 600 401C631 316 656 236 677 161 700 241 726 321 756 401L1152 1466 1350 1466 776 0 577 0Z" horiz-adv-x="1350" unicode="&#x56;"/><glyph d="M161 0 161 1466 811 1466C942 1466 1041 1453 1109 1427 1177 1400 1231 1354 1272 1287 1313 1220 1333 1147 1333 1066 1333 962 1299 874 1232 803 1165 732 1061 686 920 667 971 642 1010 618 1037 594 1094 542 1147 477 1198 399L1453 0 1209 0 1015 305C958 393 912 460 875 507 838 554 806 586 777 605 748 624 718 637 688 644 666 649 630 651 580 651L355 651 355 0 161 0ZM355 819 772 819C861 819 930 828 980 847 1030 865 1068 894 1094 935 1120 975 1133 1019 1133 1066 1133 1135 1108 1192 1058 1237 1007 1282 928 1304 819 1304L355 1304 355 819Z" horiz-adv-x="1297" unicode="&#x52;"/><glyph d="M99 714C99 957 164 1148 295 1286 426 1423 594 1492 801 1492 936 1492 1058 1460 1167 1395 1276 1330 1359 1240 1416 1125 1473 1009 1501 878 1501 731 1501 582 1471 449 1411 332 1351 215 1266 126 1156 66 1046 5 927-25 800-25 662-25 539 8 430 75 321 142 239 233 183 348 127 463 99 585 99 714ZM299 711C299 534 347 395 442 294 537 192 656 141 799 141 945 141 1065 192 1160 295 1254 398 1301 543 1301 732 1301 851 1281 956 1241 1045 1200 1134 1141 1203 1064 1252 986 1301 899 1325 802 1325 665 1325 547 1278 448 1184 349 1089 299 932 299 711Z" horiz-adv-x="1430" unicode="&#x4f;"/><glyph d="M156 0 156 1466 355 1466 1125 315 1125 1466 1311 1466 1311 0 1112 0 342 1152 342 0 156 0Z" horiz-adv-x="1165" unicode="&#x4e;"/><glyph d="M191 0 191 1466 385 1466 385 0 191 0Z" horiz-adv-x="213" unicode="&#x49;"/><glyph d="M164 0 164 1466 358 1466 358 864 1120 864 1120 1466 1314 1466 1314 0 1120 0 1120 691 358 691 358 0 164 0Z" horiz-adv-x="1165" unicode="&#x48;"/><glyph d="M158 0 158 1466 663 1466C777 1466 864 1459 924 1445 1008 1426 1080 1391 1139 1340 1216 1275 1274 1191 1313 1090 1351 988 1370 872 1370 741 1370 630 1357 531 1331 445 1305 359 1272 288 1231 232 1190 175 1146 131 1098 99 1049 66 991 42 923 25 854 8 776 0 687 0L158 0ZM352 173 665 173C762 173 838 182 893 200 948 218 991 243 1024 276 1070 322 1106 384 1132 462 1157 539 1170 633 1170 744 1170 897 1145 1015 1095 1098 1044 1180 983 1235 911 1263 859 1283 775 1293 660 1293L352 1293 352 173Z" horiz-adv-x="1218" unicode="&#x44;"/><glyph d="M1204 514 1398 465C1357 306 1284 184 1179 101 1073 17 944-25 791-25 633-25 505 7 406 72 307 136 231 229 180 351 128 473 102 604 102 744 102 897 131 1030 190 1144 248 1257 331 1344 439 1403 546 1462 665 1491 794 1491 941 1491 1064 1454 1164 1379 1264 1304 1334 1199 1373 1064L1182 1019C1148 1126 1099 1203 1034 1252 969 1301 888 1325 790 1325 677 1325 583 1298 508 1244 432 1190 379 1118 348 1027 317 936 302 842 302 745 302 620 320 512 357 419 393 326 449 256 526 210 603 164 686 141 775 141 884 141 976 172 1051 235 1126 298 1177 391 1204 514Z" horiz-adv-x="1324" unicode="&#x43;"/><glyph d="M-3 0 560 1466 769 1466 1369 0 1148 0 977 444 364 444 203 0-3 0ZM420 602 917 602 764 1008C717 1131 683 1233 660 1312 641 1218 615 1125 581 1032L420 602Z" horiz-adv-x="1403" unicode="&#x41;"/><glyph d="M85 384 274 400C288 308 321 239 372 193 423 146 484 123 556 123 643 123 716 156 776 221 836 286 866 373 866 481 866 584 837 665 780 724 722 783 646 813 553 813 495 813 443 800 396 774 349 747 313 713 286 671L117 693 259 1446 988 1446 988 1274 403 1274 324 880C412 941 504 972 601 972 729 972 837 928 925 839 1013 750 1057 636 1057 497 1057 364 1018 250 941 153 847 34 719-25 556-25 423-25 314 12 230 87 145 162 97 261 85 384Z" horiz-adv-x="980" unicode="&#x35;"/><glyph d="M86 387 266 411C287 309 322 236 372 191 421 146 482 123 553 123 638 123 709 152 768 211 826 270 855 342 855 429 855 512 828 580 774 634 720 687 651 714 568 714 534 714 492 707 441 694L461 852C473 851 483 850 490 850 567 850 636 870 697 910 758 950 789 1012 789 1095 789 1161 767 1216 722 1259 677 1302 620 1324 549 1324 479 1324 421 1302 374 1258 327 1214 297 1148 284 1060L104 1092C126 1213 176 1306 254 1373 332 1439 429 1472 545 1472 625 1472 699 1455 766 1421 833 1386 885 1339 921 1280 956 1221 974 1158 974 1091 974 1028 957 970 923 918 889 866 839 825 772 794 859 774 926 733 974 670 1022 607 1046 528 1046 433 1046 305 999 197 906 108 813 19 695-26 552-26 423-26 317 12 232 89 147 166 98 265 86 387Z" horiz-adv-x="980" unicode="&#x33;"/><glyph d="M1031 173 1031 0 62 0C61 43 68 85 83 125 108 191 147 256 202 320 256 384 334 458 437 542 596 673 704 776 760 853 816 929 844 1001 844 1069 844 1140 819 1201 768 1250 717 1299 650 1323 568 1323 481 1323 412 1297 360 1245 308 1193 282 1121 281 1029L96 1048C109 1186 156 1291 239 1364 322 1436 433 1472 572 1472 713 1472 824 1433 906 1355 988 1277 1029 1180 1029 1065 1029 1006 1017 949 993 892 969 835 929 776 874 713 818 650 725 564 596 455 488 364 419 303 388 271 357 238 332 206 312 173L1031 173Z" horiz-adv-x="980" unicode="&#x32;"/><glyph d="M763 0 583 0 583 1147C540 1106 483 1064 413 1023 342 982 279 951 223 930L223 1104C324 1151 412 1209 487 1276 562 1343 616 1409 647 1472L763 1472 763 0Z" horiz-adv-x="556" unicode="&#x31;"/><glyph d="M186 0 186 205 391 205 391 0 186 0Z" horiz-adv-x="239" unicode="&#x2e;"/><glyph d="M65 440 65 621 618 621 618 440 65 440Z" horiz-adv-x="583" unicode="&#x2d;"/><glyph horiz-adv-x="556" unicode="&#x20;"/></font><font horiz-adv-x="2048" horiz-origin-x="0" horiz-origin-y="0" vert-adv-y="1024" vert-origin-x="512" vert-origin-y="768"><font-face ascent="1852" descent="423" units-per-em="2048"/><missing-glyph d="M0 0 2047 0 2047 2047 0 2047 0 0Z" horiz-adv-x="2048"/><glyph d="M357 738 102 784C131 887 180 963 250 1012 320 1061 424 1086 562 1086 687 1086 781 1071 842 1042 903 1012 947 974 972 929 997 883 1009 799 1009 677L1006 349C1006 256 1011 187 1020 143 1029 98 1045 51 1070 0L792 0C785 19 776 46 765 83 760 100 757 111 755 116 707 69 656 34 601 11 546-12 488-24 426-24 317-24 231 6 168 65 105 124 73 199 73 290 73 350 87 404 116 451 145 498 185 534 237 559 288 584 363 605 460 624 591 649 682 672 733 693L733 721C733 775 720 814 693 837 666 860 616 871 542 871 492 871 453 861 425 842 397 822 374 787 357 738ZM733 510C697 498 640 484 562 467 484 450 433 434 409 418 372 392 354 359 354 319 354 280 369 246 398 217 427 188 465 174 510 174 561 174 609 191 655 224 689 249 711 280 722 317 729 341 733 387 733 454L733 510ZM1006 0C993-9 982-20 972-32 961-45 952-58 945-72 938-86 932-100 928-114 924-129 922-143 922-156 922-178 928-196 940-211 951-226 971-234 998-234 1010-234 1024-232 1039-227 1054-223 1068-219 1081-215L1081-382C1025-409 975-422 930-422 893-422 860-417 833-407 806-397 783-383 765-366 746-349 733-328 724-305 715-282 710-258 710-232 710-193 722-153 745-111 768-69 800-32 839 0L1006 0Z" horiz-adv-x="1059" unicode="&#x105;"/><glyph d="M34 0 34 219 432 676C497 751 546 804 577 835 544 833 501 832 448 831L73 829 73 1062 951 1062 951 863 545 395 402 240C480 245 528 247 547 247L982 247 982 0 34 0Z" horiz-adv-x="980" unicode="&#x7a;"/><glyph d="M345 0 9 1062 282 1062 481 366 664 1062 935 1062 1112 366 1315 1062 1592 1062 1251 0 981 0 798 683 618 0 345 0Z" horiz-adv-x="1641" unicode="&#x77;"/><glyph d="M634 1062 634 838 442 838 442 410C442 323 444 273 448 259 451 244 460 232 473 223 486 214 501 209 520 209 546 209 584 218 633 236L657 18C592-10 518-24 435-24 384-24 339-15 298 2 257 19 228 41 209 68 190 95 176 131 169 177 163 210 160 276 160 375L160 838 31 838 31 1062 160 1062 160 1273 442 1437 442 1062 634 1062Z" horiz-adv-x="636" unicode="&#x74;"/><glyph d="M48 303 330 346C342 291 366 250 403 222 440 193 491 179 557 179 630 179 684 192 721 219 746 238 758 263 758 294 758 315 751 333 738 347 724 360 693 373 644 384 417 434 274 480 213 521 129 578 87 658 87 760 87 852 123 929 196 992 269 1055 381 1086 534 1086 679 1086 787 1062 858 1015 929 968 977 898 1004 805L739 756C728 797 706 829 675 851 643 873 598 884 539 884 465 884 412 874 380 853 359 838 348 819 348 796 348 776 357 759 376 745 401 726 489 700 639 666 788 632 893 590 952 541 1011 491 1040 421 1040 332 1040 235 999 151 918 81 837 11 716-24 557-24 412-24 298 5 214 64 129 123 74 202 48 303Z" horiz-adv-x="1033" unicode="&#x73;"/><glyph d="M139 1062 401 1062 401 906C435 959 481 1003 539 1036 597 1069 661 1086 732 1086 855 1086 960 1038 1046 941 1132 844 1175 710 1175 537 1175 360 1132 222 1045 124 958 25 853-24 730-24 671-24 618-12 571 11 523 34 473 74 420 131L420-404 139-404 139 1062ZM417 549C417 430 441 342 488 285 535 228 593 199 661 199 726 199 781 225 824 278 867 330 889 416 889 535 889 646 867 729 822 783 777 837 722 864 656 864 587 864 530 838 485 785 440 732 417 653 417 549Z" horiz-adv-x="1033" unicode="&#x70;"/><glyph d="M1113 0 832 0 832 542C832 657 826 731 814 765 802 798 783 824 756 843 729 862 696 871 658 871 609 871 566 858 527 831 488 804 462 769 448 725 433 681 426 600 426 481L426 0 145 0 145 1062 406 1062 406 906C499 1026 615 1086 756 1086 818 1086 875 1075 926 1053 977 1030 1016 1002 1043 967 1069 932 1087 893 1098 849 1108 805 1113 742 1113 660L1113 0Z" horiz-adv-x="980" unicode="&#x6e;"/><glyph d="M137 0 137 1466 418 1466 418 688 747 1062 1093 1062 730 674 1119 0 816 0 549 477 418 340 418 0 137 0Z" horiz-adv-x="1007" unicode="&#x6b;"/><glyph d="M141 1206 141 1466 422 1466 422 1206 141 1206ZM422 1062 422 33C422-102 413-198 396-253 378-309 344-353 294-384 243-415 179-431 101-431 73-431 43-428 11-423-22-418-57-411-94-401L-45-161C-32-164-19-166-7-167 4-169 15-170 25-170 54-170 77-164 96-151 114-139 126-124 132-107 138-90 141-38 141 49L141 1062 422 1062Z" horiz-adv-x="530" unicode="&#x6a;"/><glyph d="M762 338 1042 291C1006 188 949 110 872 57 794 3 697-24 580-24 395-24 259 36 170 157 100 254 65 376 65 523 65 699 111 837 203 937 295 1036 411 1086 552 1086 710 1086 835 1034 926 930 1017 825 1061 665 1057 450L353 450C355 367 378 302 421 256 464 209 518 186 583 186 627 186 664 198 694 222 724 246 747 285 762 338ZM778 622C776 703 755 765 715 808 675 850 626 871 569 871 508 871 457 849 417 804 377 759 357 699 358 622L778 622Z" horiz-adv-x="1033" unicode="&#x65;"/><glyph d="M1073 748 796 698C787 753 766 795 733 823 700 851 657 865 604 865 534 865 478 841 437 793 395 744 374 663 374 550 374 424 395 335 438 283 480 231 537 205 608 205 661 205 705 220 739 251 773 281 797 333 811 407L1087 360C1058 233 1003 138 922 73 841 8 732-24 595-24 440-24 316 25 224 123 131 221 85 357 85 530 85 705 131 842 224 940 317 1037 442 1086 600 1086 729 1086 832 1058 909 1003 985 947 1040 862 1073 748Z" horiz-adv-x="1007" unicode="&#x63;"/><glyph d="M357 738 102 784C131 887 180 963 250 1012 320 1061 424 1086 562 1086 687 1086 781 1071 842 1042 903 1012 947 974 972 929 997 883 1009 799 1009 677L1006 349C1006 256 1011 187 1020 143 1029 98 1045 51 1070 0L792 0C785 19 776 46 765 83 760 100 757 111 755 116 707 69 656 34 601 11 546-12 488-24 426-24 317-24 231 6 168 65 105 124 73 199 73 290 73 350 87 404 116 451 145 498 185 534 237 559 288 584 363 605 460 624 591 649 682 672 733 693L733 721C733 775 720 814 693 837 666 860 616 871 542 871 492 871 453 861 425 842 397 822 374 787 357 738ZM733 510C697 498 640 484 562 467 484 450 433 434 409 418 372 392 354 359 354 319 354 280 369 246 398 217 427 188 465 174 510 174 561 174 609 191 655 224 689 249 711 280 722 317 729 341 733 387 733 454L733 510Z" horiz-adv-x="1033" unicode="&#x61;"/><glyph d="M74 477 362 505C379 408 415 337 468 292 521 247 592 224 682 224 777 224 849 244 898 285 946 325 970 372 970 426 970 461 960 490 940 515 919 539 884 560 833 578 798 590 719 611 596 642 437 681 326 730 262 787 172 868 127 966 127 1082 127 1157 148 1227 191 1292 233 1357 294 1406 374 1440 453 1474 549 1491 662 1491 846 1491 985 1451 1078 1370 1171 1289 1219 1182 1224 1047L928 1034C915 1109 888 1164 847 1197 805 1230 742 1246 659 1246 573 1246 506 1228 457 1193 426 1170 410 1140 410 1102 410 1067 425 1038 454 1013 491 982 582 949 726 915 870 881 977 846 1046 810 1115 773 1169 724 1208 661 1247 598 1266 520 1266 427 1266 343 1243 264 1196 191 1149 118 1083 63 998 28 913-8 806-26 679-26 494-26 351 17 252 103 153 188 93 313 74 477Z" horiz-adv-x="1218" unicode="&#x53;"/><glyph d="M149 0 149 1466 1236 1466 1236 1218 445 1218 445 893 1181 893 1181 646 445 646 445 247 1264 247 1264 0 149 0Z" horiz-adv-x="1139" unicode="&#x45;"/><glyph d="M1087 539 1374 448C1330 288 1257 169 1155 92 1052 14 922-25 765-25 570-25 410 42 285 175 160 308 97 489 97 720 97 964 160 1154 286 1289 412 1424 578 1491 783 1491 962 1491 1108 1438 1220 1332 1287 1269 1337 1179 1370 1062L1077 992C1060 1068 1024 1128 969 1172 914 1216 847 1238 768 1238 659 1238 571 1199 504 1121 436 1043 402 917 402 742 402 557 435 425 502 346 569 267 655 228 762 228 841 228 908 253 965 303 1022 353 1062 432 1087 539Z" horiz-adv-x="1324" unicode="&#x43;"/><glyph horiz-adv-x="556" unicode="&#x20;"/></font><font horiz-adv-x="2048" horiz-origin-x="0" horiz-origin-y="0" vert-adv-y="1024" vert-origin-x="512" vert-origin-y="768"><font-face ascent="1508" descent="529" units-per-em="2048"/><missing-glyph d="M0 0 2047 0 2047 2047 0 2047 0 0Z" horiz-adv-x="2048"/><glyph d="M297 102C297 86 294 71 288 56 282 41 274 29 264 18 253 7 241-2 226-8 211-15 195-18 178-18 161-18 145-15 130-8 115-2 103 6 93 17 82 28 74 40 68 55 62 70 59 85 59 102 59 119 62 134 68 149 74 164 82 177 93 188 103 199 115 207 130 214 145 220 161 223 178 223 195 223 211 220 226 214 241 207 253 199 264 188 274 177 282 165 288 150 294 135 297 119 297 102ZM682 102C682 86 679 71 673 56 667 41 659 29 649 18 638 7 626-2 611-8 596-15 580-18 563-18 546-18 530-15 515-8 500-2 488 6 478 17 467 28 459 40 453 55 447 70 444 85 444 102 444 119 447 134 453 149 459 164 467 177 478 188 488 199 500 207 515 214 530 220 546 223 563 223 580 223 596 220 611 214 626 207 638 199 649 188 659 177 667 165 673 150 679 135 682 119 682 102ZM1067 102C1067 86 1064 71 1058 56 1052 41 1044 29 1034 18 1023 7 1011-2 996-8 981-15 965-18 948-18 931-18 915-15 900-8 885-2 873 6 863 17 852 28 844 40 838 55 832 70 829 85 829 102 829 119 832 134 838 149 844 164 852 177 863 188 873 199 885 207 900 214 915 220 931 223 948 223 965 223 981 220 996 214 1011 207 1023 199 1034 188 1044 177 1052 165 1058 150 1064 135 1067 119 1067 102Z" horiz-adv-x="1006" unicode="&#x2026;"/><glyph d="M1018 455C1018 383 1008 318 988 260 967 201 937 152 898 111 859 70 811 38 754 16 697-7 631-18 557-18 476-18 407-7 350 14 293 35 247 66 212 105 176 144 150 190 134 245 117 300 109 361 109 428L109 1307 287 1307 287 442C287 391 292 346 302 307 311 268 327 236 349 210 371 184 400 164 435 151 470 138 512 131 563 131 658 131 728 158 773 213 818 268 840 345 840 444L840 1307 1018 1307 1018 455Z" horiz-adv-x="900" unicode="&#x55;"/><glyph d="M1040 1155 653 1155 653 0 473 0 473 1155 86 1155 86 1307 1040 1307 1040 1155Z" horiz-adv-x="954" unicode="&#x54;"/><glyph d="M1006 1083C957 1109 907 1129 856 1144 805 1158 749 1165 688 1165 619 1165 557 1153 503 1128 449 1103 404 1069 367 1024 330 979 301 924 282 861 262 798 252 728 252 651 252 571 260 499 276 436 292 373 317 319 351 275 385 231 429 197 482 174 535 151 598 139 672 139 685 139 698 140 713 141 728 142 742 144 757 147 772 149 786 152 800 155 813 158 825 162 836 166L836 582 569 582 569 729 1012 729 1012 61C985 48 956 37 926 27 895 17 864 9 833 2 801-5 769-10 738-13 707-16 676-18 647-18 558-18 477-4 406 24 334 52 273 94 223 149 172 204 134 272 107 354 80 436 66 531 66 639 66 746 81 843 111 928 141 1013 183 1085 238 1144 292 1203 357 1248 434 1279 510 1310 594 1325 686 1325 745 1325 801 1320 854 1310 907 1299 957 1283 1006 1260L1006 1083Z" horiz-adv-x="953" unicode="&#x47;"/><glyph d="M995 49C890 6 781-16 666-16 481-16 340 39 241 150 142 260 92 423 92 639 92 744 106 838 133 923 160 1008 199 1080 250 1139 301 1198 362 1243 434 1275 506 1307 587 1323 676 1323 737 1323 793 1318 845 1308 897 1297 947 1281 995 1260L995 1085C948 1111 899 1131 848 1145 797 1158 742 1165 682 1165 621 1165 565 1154 516 1131 466 1108 424 1074 389 1031 354 987 328 934 309 871 290 808 281 736 281 655 281 486 315 358 384 272 453 186 553 143 686 143 742 143 796 150 847 163 898 176 948 194 995 217L995 49Z" horiz-adv-x="901" unicode="&#x43;"/><glyph d="M1116 0 922 0 831 285 287 285 195 0 10 0 444 1307 688 1307 1116 0ZM780 444 559 1143 338 444 780 444Z" horiz-adv-x="1112" unicode="&#x41;"/><glyph horiz-adv-x="1111" unicode="&#x20;"/></font><font horiz-adv-x="2048" horiz-origin-x="0" horiz-origin-y="0" vert-adv-y="1024" vert-origin-x="512" vert-origin-y="768"><font-face ascent="1508" descent="529" units-per-em="2048"/><missing-glyph d="M0 0 2047 0 2047 2047 0 2047 0 0Z" horiz-adv-x="2048"/><glyph d="M1039 481C1039 398 1028 325 1006 262 983 199 951 146 910 104 868 62 817 30 757 9 697-12 630-23 555-23 471-23 399-12 339 9 279 30 230 61 193 101 156 141 129 190 112 247 95 304 87 369 87 440L87 1307 333 1307 333 455C333 411 337 372 345 338 352 304 366 275 385 252 404 228 427 210 456 198 485 186 521 180 564 180 605 180 639 185 667 196 695 206 718 223 737 246 756 269 770 298 779 334 788 370 793 414 793 465L793 1307 1039 1307 1039 481Z" horiz-adv-x="954" unicode="&#x55;"/><glyph d="M689 1102 689 0 437 0 437 1102 79 1102 79 1307 1047 1307 1047 1102 689 1102Z" horiz-adv-x="1006" unicode="&#x54;"/><glyph d="M569 553 569 756 1034 756 1034 59C974 31 911 10 846-3 781-16 710-23 633-23 542-23 461-9 389 19 316 47 255 89 204 144 153 199 115 268 88 350 61 432 47 527 47 635 47 744 61 841 90 927 118 1013 159 1086 214 1146 268 1205 335 1251 414 1282 493 1313 583 1329 684 1329 744 1329 803 1324 860 1314 917 1303 973 1289 1030 1272L1030 1029C981 1052 926 1072 867 1087 807 1102 747 1109 686 1109 625 1109 571 1098 524 1077 477 1056 437 1025 406 986 374 947 350 898 334 841 317 784 309 719 309 647 309 578 315 515 328 460 341 404 361 357 390 318 418 279 454 249 499 228 544 207 598 197 662 197 677 197 691 198 702 199 713 200 724 201 734 203 744 205 754 207 763 210 772 213 781 216 791 219L791 553 569 553Z" horiz-adv-x="1007" unicode="&#x47;"/><glyph d="M1004 51C946 28 890 10 836-1 781-12 725-18 666-18 572-18 489-4 417 24 344 51 283 92 234 147 184 202 146 270 121 351 95 432 82 526 82 633 82 743 96 841 124 927 152 1012 192 1085 244 1144 296 1203 359 1248 434 1279 508 1310 591 1325 684 1325 714 1325 742 1324 769 1323 795 1322 821 1319 846 1316 871 1312 897 1307 923 1301 949 1295 976 1287 1004 1278L1004 1034C947 1061 893 1080 842 1091 791 1102 744 1108 702 1108 640 1108 587 1097 543 1075 499 1052 463 1021 435 981 406 940 385 892 372 837 359 781 352 720 352 653 352 582 359 519 373 464 386 408 407 361 436 322 465 283 501 254 546 234 591 213 644 203 705 203 727 203 751 205 777 210 802 214 828 220 855 227 881 234 907 242 933 252 958 261 982 271 1004 281L1004 51Z" horiz-adv-x="927" unicode="&#x43;"/><glyph d="M850 0 778 258 322 258 248 0 4 0 391 1307 735 1307 1122 0 850 0ZM553 1067 381 459 723 459 553 1067Z" horiz-adv-x="1112" unicode="&#x41;"/></font>
</defs>
</svg>
