<svg fill-rule="evenodd" height="70.6738" preserveAspectRatio="xMidYMid" stroke-linejoin="round" stroke-width="28.222" viewBox="2498 9117 13687.046 1662.1424" width="581.9689" xmlns="http://www.w3.org/2000/svg"><defs><font horiz-adv-x="2048" horiz-origin-x="0" horiz-origin-y="0" vert-adv-y="1024" vert-origin-x="512" vert-origin-y="768"><font-face ascent="1852" descent="423" units-per-em="2048"/><missing-glyph d="M0 0 2047 0 2047 2047 0 2047 0 0Z" horiz-adv-x="2048"/><glyph horiz-adv-x="556" unicode="&#x20;"/></font><font horiz-adv-x="2048" horiz-origin-x="0" horiz-origin-y="0" vert-adv-y="1024" vert-origin-x="512" vert-origin-y="768"><font-face ascent="1852" descent="423" units-per-em="2048"/><missing-glyph d="M0 0 2047 0 2047 2047 0 2047 0 0Z" horiz-adv-x="2048"/><glyph d="M14 1062 313 1062 567 308 815 1062 1106 1062 731 40 664-145C639-207 616-254 594-287 571-320 546-346 517-366 488-387 452-403 410-414 367-425 319-431 266-431 212-431 159-425 107-414L82-194C126-203 166-207 201-207 266-207 315-188 346-149 377-111 401-62 418-3L14 1062Z" horiz-adv-x="1086" unicode="&#x79;"/><glyph d="M345 0 9 1062 282 1062 481 366 664 1062 935 1062 1112 366 1315 1062 1592 1062 1251 0 981 0 798 683 618 0 345 0Z" horiz-adv-x="1641" unicode="&#x77;"/><glyph d="M846 0 846 159C807 102 757 58 694 25 631-8 564-24 494-24 423-24 359-8 302 23 245 54 204 98 179 155 154 212 141 290 141 390L141 1062 422 1062 422 574C422 425 427 333 438 300 448 266 467 239 494 220 521 200 556 190 598 190 646 190 689 203 727 230 765 256 791 289 805 328 819 367 826 462 826 614L826 1062 1107 1062 1107 0 846 0Z" horiz-adv-x="980" unicode="&#x75;"/><glyph d="M634 1062 634 838 442 838 442 410C442 323 444 273 448 259 451 244 460 232 473 223 486 214 501 209 520 209 546 209 584 218 633 236L657 18C592-10 518-24 435-24 384-24 339-15 298 2 257 19 228 41 209 68 190 95 176 131 169 177 163 210 160 276 160 375L160 838 31 838 31 1062 160 1062 160 1273 442 1437 442 1062 634 1062Z" horiz-adv-x="636" unicode="&#x74;"/><glyph d="M48 303 330 346C342 291 366 250 403 222 440 193 491 179 557 179 630 179 684 192 721 219 746 238 758 263 758 294 758 315 751 333 738 347 724 360 693 373 644 384 417 434 274 480 213 521 129 578 87 658 87 760 87 852 123 929 196 992 269 1055 381 1086 534 1086 679 1086 787 1062 858 1015 929 968 977 898 1004 805L739 756C728 797 706 829 675 851 643 873 598 884 539 884 465 884 412 874 380 853 359 838 348 819 348 796 348 776 357 759 376 745 401 726 489 700 639 666 788 632 893 590 952 541 1011 491 1040 421 1040 332 1040 235 999 151 918 81 837 11 716-24 557-24 412-24 298 5 214 64 129 123 74 202 48 303Z" horiz-adv-x="1033" unicode="&#x73;"/><glyph d="M82 546C82 639 105 730 151 817 197 904 262 971 347 1017 431 1063 525 1086 629 1086 790 1086 921 1034 1024 930 1127 825 1178 693 1178 534 1178 373 1126 240 1023 135 919 29 788-24 631-24 534-24 441-2 353 42 264 86 197 151 151 236 105 321 82 424 82 546ZM370 531C370 426 395 345 445 289 495 233 557 205 630 205 703 205 765 233 815 289 864 345 889 426 889 533 889 637 864 717 815 773 765 829 703 857 630 857 557 857 495 829 445 773 395 717 370 636 370 531Z" horiz-adv-x="1113" unicode="&#x6f;"/><glyph d="M1113 0 832 0 832 542C832 657 826 731 814 765 802 798 783 824 756 843 729 862 696 871 658 871 609 871 566 858 527 831 488 804 462 769 448 725 433 681 426 600 426 481L426 0 145 0 145 1062 406 1062 406 906C499 1026 615 1086 756 1086 818 1086 875 1075 926 1053 977 1030 1016 1002 1043 967 1069 932 1087 893 1098 849 1108 805 1113 742 1113 660L1113 0Z" horiz-adv-x="980" unicode="&#x6e;"/><glyph d="M126 1062 385 1062 385 917C478 1030 588 1086 716 1086 784 1086 843 1072 893 1044 943 1016 984 974 1016 917 1063 974 1113 1016 1167 1044 1221 1072 1279 1086 1340 1086 1418 1086 1484 1070 1538 1039 1592 1007 1632 960 1659 899 1678 854 1688 780 1688 679L1688 0 1407 0 1407 607C1407 712 1397 780 1378 811 1352 851 1312 871 1258 871 1219 871 1182 859 1147 835 1112 811 1087 776 1072 730 1057 683 1049 610 1049 510L1049 0 768 0 768 582C768 685 763 752 753 782 743 812 728 834 707 849 686 864 657 871 621 871 578 871 539 859 504 836 469 813 445 779 430 735 415 691 407 618 407 516L407 0 126 0 126 1062Z" horiz-adv-x="1588" unicode="&#x6d;"/><glyph d="M147 0 147 1466 428 1466 428 0 147 0Z" horiz-adv-x="292" unicode="&#x6c;"/><glyph d="M137 0 137 1466 418 1466 418 688 747 1062 1093 1062 730 674 1119 0 816 0 549 477 418 340 418 0 137 0Z" horiz-adv-x="1007" unicode="&#x6b;"/><glyph d="M141 1206 141 1466 422 1466 422 1206 141 1206ZM422 1062 422 33C422-102 413-198 396-253 378-309 344-353 294-384 243-415 179-431 101-431 73-431 43-428 11-423-22-418-57-411-94-401L-45-161C-32-164-19-166-7-167 4-169 15-170 25-170 54-170 77-164 96-151 114-139 126-124 132-107 138-90 141-38 141 49L141 1062 422 1062Z" horiz-adv-x="530" unicode="&#x6a;"/><glyph d="M147 1206 147 1466 428 1466 428 1206 147 1206ZM147 0 147 1062 428 1062 428 0 147 0Z" horiz-adv-x="292" unicode="&#x69;"/><glyph d="M762 338 1042 291C1006 188 949 110 872 57 794 3 697-24 580-24 395-24 259 36 170 157 100 254 65 376 65 523 65 699 111 837 203 937 295 1036 411 1086 552 1086 710 1086 835 1034 926 930 1017 825 1061 665 1057 450L353 450C355 367 378 302 421 256 464 209 518 186 583 186 627 186 664 198 694 222 724 246 747 285 762 338ZM778 622C776 703 755 765 715 808 675 850 626 871 569 871 508 871 457 849 417 804 377 759 357 699 358 622L778 622Z" horiz-adv-x="1033" unicode="&#x65;"/><glyph d="M1121 0 860 0 860 156C817 95 766 50 707 21 648-9 588-24 528-24 406-24 302 25 215 124 128 222 84 359 84 535 84 715 126 852 211 946 296 1039 403 1086 532 1086 651 1086 753 1037 840 938L840 1466 1121 1466 1121 0ZM371 554C371 441 387 359 418 308 463 235 527 198 608 198 673 198 728 226 773 281 818 336 841 418 841 527 841 649 819 737 775 791 731 844 675 871 606 871 539 871 484 845 439 792 394 739 371 659 371 554Z" horiz-adv-x="1033" unicode="&#x64;"/><glyph d="M1073 748 796 698C787 753 766 795 733 823 700 851 657 865 604 865 534 865 478 841 437 793 395 744 374 663 374 550 374 424 395 335 438 283 480 231 537 205 608 205 661 205 705 220 739 251 773 281 797 333 811 407L1087 360C1058 233 1003 138 922 73 841 8 732-24 595-24 440-24 316 25 224 123 131 221 85 357 85 530 85 705 131 842 224 940 317 1037 442 1086 600 1086 729 1086 832 1058 909 1003 985 947 1040 862 1073 748Z" horiz-adv-x="1007" unicode="&#x63;"/><glyph d="M357 738 102 784C131 887 180 963 250 1012 320 1061 424 1086 562 1086 687 1086 781 1071 842 1042 903 1012 947 974 972 929 997 883 1009 799 1009 677L1006 349C1006 256 1011 187 1020 143 1029 98 1045 51 1070 0L792 0C785 19 776 46 765 83 760 100 757 111 755 116 707 69 656 34 601 11 546-12 488-24 426-24 317-24 231 6 168 65 105 124 73 199 73 290 73 350 87 404 116 451 145 498 185 534 237 559 288 584 363 605 460 624 591 649 682 672 733 693L733 721C733 775 720 814 693 837 666 860 616 871 542 871 492 871 453 861 425 842 397 822 374 787 357 738ZM733 510C697 498 640 484 562 467 484 450 433 434 409 418 372 392 354 359 354 319 354 280 369 246 398 217 427 188 465 174 510 174 561 174 609 191 655 224 689 249 711 280 722 317 729 341 733 387 733 454L733 510Z" horiz-adv-x="1033" unicode="&#x61;"/><glyph d="M74 477 362 505C379 408 415 337 468 292 521 247 592 224 682 224 777 224 849 244 898 285 946 325 970 372 970 426 970 461 960 490 940 515 919 539 884 560 833 578 798 590 719 611 596 642 437 681 326 730 262 787 172 868 127 966 127 1082 127 1157 148 1227 191 1292 233 1357 294 1406 374 1440 453 1474 549 1491 662 1491 846 1491 985 1451 1078 1370 1171 1289 1219 1182 1224 1047L928 1034C915 1109 888 1164 847 1197 805 1230 742 1246 659 1246 573 1246 506 1228 457 1193 426 1170 410 1140 410 1102 410 1067 425 1038 454 1013 491 982 582 949 726 915 870 881 977 846 1046 810 1115 773 1169 724 1208 661 1247 598 1266 520 1266 427 1266 343 1243 264 1196 191 1149 118 1083 63 998 28 913-8 806-26 679-26 494-26 351 17 252 103 153 188 93 313 74 477Z" horiz-adv-x="1218" unicode="&#x53;"/><glyph d="M201 781 201 1062 482 1062 482 781 201 781ZM201 0 201 281 482 281 482 0 201 0Z" horiz-adv-x="292" unicode="&#x3a;"/><glyph horiz-adv-x="556" unicode="&#x20;"/></font><font horiz-adv-x="2048" horiz-origin-x="0" horiz-origin-y="0" vert-adv-y="1024" vert-origin-x="512" vert-origin-y="768"><font-face ascent="1508" descent="529" units-per-em="2048"/><missing-glyph d="M0 0 2047 0 2047 2047 0 2047 0 0Z" horiz-adv-x="2048"/><glyph d="M474 758 339 807 547 1440 790 1364 474 758Z" horiz-adv-x="477" unicode="&#x2032;"/><glyph d="M297 102C297 86 294 71 288 56 282 41 274 29 264 18 253 7 241-2 226-8 211-15 195-18 178-18 161-18 145-15 130-8 115-2 103 6 93 17 82 28 74 40 68 55 62 70 59 85 59 102 59 119 62 134 68 149 74 164 82 177 93 188 103 199 115 207 130 214 145 220 161 223 178 223 195 223 211 220 226 214 241 207 253 199 264 188 274 177 282 165 288 150 294 135 297 119 297 102ZM682 102C682 86 679 71 673 56 667 41 659 29 649 18 638 7 626-2 611-8 596-15 580-18 563-18 546-18 530-15 515-8 500-2 488 6 478 17 467 28 459 40 453 55 447 70 444 85 444 102 444 119 447 134 453 149 459 164 467 177 478 188 488 199 500 207 515 214 530 220 546 223 563 223 580 223 596 220 611 214 626 207 638 199 649 188 659 177 667 165 673 150 679 135 682 119 682 102ZM1067 102C1067 86 1064 71 1058 56 1052 41 1044 29 1034 18 1023 7 1011-2 996-8 981-15 965-18 948-18 931-18 915-15 900-8 885-2 873 6 863 17 852 28 844 40 838 55 832 70 829 85 829 102 829 119 832 134 838 149 844 164 852 177 863 188 873 199 885 207 900 214 915 220 931 223 948 223 965 223 981 220 996 214 1011 207 1023 199 1034 188 1044 177 1052 165 1058 150 1064 135 1067 119 1067 102Z" horiz-adv-x="1006" unicode="&#x2026;"/><glyph d="M1053 1004 711 106C676 15 639-64 602-130 564-196 523-250 478-292 433-335 384-366 331-386 278-406 218-416 152-416 135-416 119-416 105-415 91-414 76-413 59-412L59-254C74-256 90-258 107-259 124-261 143-262 162-262 194-262 224-257 252-248 279-239 305-223 330-202 355-181 378-154 401-121 424-88 446-47 467 0L66 1004 264 1004 518 340 569 184 627 344 862 1004 1053 1004Z" horiz-adv-x="1006" unicode="&#x79;"/><glyph d="M967 0 811 0 805 162C775 127 747 99 720 76 693 53 666 34 639 20 612 6 586-4 559-9 532-15 503-18 473-18 370-18 292 12 239 73 186 134 160 225 160 348L160 1004 334 1004 334 362C334 208 392 131 508 131 529 131 550 134 571 141 591 147 612 158 635 174 657 189 681 210 707 237 732 264 761 297 793 338L793 1004 967 1004 967 0Z" horiz-adv-x="821" unicode="&#x75;"/><glyph d="M969 14C930 4 889-3 847-7 805-12 762-14 719-14 593-14 499 15 437 72 375 129 344 216 344 334L344 858 63 858 63 1004 344 1004 344 1280 518 1325 518 1004 969 1004 969 858 518 858 518 348C518 276 537 222 576 187 614 151 670 133 745 133 777 133 812 136 850 141 888 146 928 153 969 164L969 14Z" horiz-adv-x="927" unicode="&#x74;"/><glyph d="M502 1270 205 1270 205 1413 678 1413 678 145 977 145 977 0 172 0 172 145 502 145 502 1270Z" horiz-adv-x="821" unicode="&#x6c;"/><glyph d="M1008 555C1008 530 1008 510 1007 493 1006 476 1005 461 1004 446L299 446C299 343 328 265 385 210 442 155 525 127 633 127 662 127 692 128 721 131 750 133 779 136 806 140 833 144 860 149 885 154 910 159 933 164 954 170L954 27C907 14 853 3 794-5 734-14 672-18 608-18 522-18 448-6 386 17 324 40 273 74 234 119 194 163 165 217 146 282 127 346 117 419 117 500 117 571 127 638 148 701 168 764 198 819 237 867 276 914 323 952 380 980 437 1008 501 1022 573 1022 643 1022 705 1011 759 989 813 967 859 936 896 896 933 855 961 806 980 749 999 691 1008 626 1008 555ZM827 580C829 625 825 666 814 703 803 740 787 771 765 798 742 825 714 846 681 861 648 876 609 883 565 883 527 883 492 876 461 861 430 846 403 826 380 799 357 772 339 740 325 703 311 666 302 625 299 580L827 580Z" horiz-adv-x="900" unicode="&#x65;"/><glyph d="M805 0 801 135C746 81 691 42 635 18 578-6 519-18 457-18 400-18 351-11 310 4 269 19 236 39 210 65 183 90 164 120 152 155 139 190 133 227 133 268 133 369 171 448 246 505 321 562 431 590 578 590L786 590 786 678C786 737 767 785 729 821 691 856 633 874 555 874 498 874 443 868 388 855 333 842 276 824 217 801L217 958C239 966 264 974 291 982 318 989 346 996 376 1002 406 1008 437 1013 470 1017 503 1020 536 1022 569 1022 630 1022 684 1015 733 1002 782 989 823 968 857 941 890 914 916 879 934 838 952 797 961 748 961 692L961 0 805 0ZM786 457 565 457C522 457 484 453 453 444 422 435 396 423 376 407 356 391 341 372 332 350 322 327 317 302 317 274 317 255 320 236 326 219 332 201 342 185 355 172 368 158 386 147 407 139 428 131 454 127 485 127 525 127 571 139 623 164 674 188 729 226 786 279L786 457Z" horiz-adv-x="822" unicode="&#x61;"/><glyph d="M1122 1307 678 0 438 0 4 1307 205 1307 487 426 567 168 649 426 932 1307 1122 1307Z" horiz-adv-x="1112" unicode="&#x56;"/><glyph d="M1040 1155 653 1155 653 0 473 0 473 1155 86 1155 86 1307 1040 1307 1040 1155Z" horiz-adv-x="954" unicode="&#x54;"/><glyph d="M1008 0 776 0 395 815 285 1077 285 418 285 0 119 0 119 1307 348 1307 711 535 842 236 842 936 842 1307 1008 1307 1008 0Z" horiz-adv-x="900" unicode="&#x4e;"/><glyph d="M1077 0 903 0 877 815 866 1128 805 946 612 426 489 426 305 926 244 1128 240 801 217 0 49 0 113 1307 324 1307 500 815 557 649 612 815 797 1307 1014 1307 1077 0Z" horiz-adv-x="1060" unicode="&#x4d;"/><glyph d="M985 0 233 0 233 1307 414 1307 414 152 985 152 985 0Z" horiz-adv-x="768" unicode="&#x4c;"/><glyph d="M1006 1083C957 1109 907 1129 856 1144 805 1158 749 1165 688 1165 619 1165 557 1153 503 1128 449 1103 404 1069 367 1024 330 979 301 924 282 861 262 798 252 728 252 651 252 571 260 499 276 436 292 373 317 319 351 275 385 231 429 197 482 174 535 151 598 139 672 139 685 139 698 140 713 141 728 142 742 144 757 147 772 149 786 152 800 155 813 158 825 162 836 166L836 582 569 582 569 729 1012 729 1012 61C985 48 956 37 926 27 895 17 864 9 833 2 801-5 769-10 738-13 707-16 676-18 647-18 558-18 477-4 406 24 334 52 273 94 223 149 172 204 134 272 107 354 80 436 66 531 66 639 66 746 81 843 111 928 141 1013 183 1085 238 1144 292 1203 357 1248 434 1279 510 1310 594 1325 686 1325 745 1325 801 1320 854 1310 907 1299 957 1283 1006 1260L1006 1083Z" horiz-adv-x="953" unicode="&#x47;"/><glyph d="M995 49C890 6 781-16 666-16 481-16 340 39 241 150 142 260 92 423 92 639 92 744 106 838 133 923 160 1008 199 1080 250 1139 301 1198 362 1243 434 1275 506 1307 587 1323 676 1323 737 1323 793 1318 845 1308 897 1297 947 1281 995 1260L995 1085C948 1111 899 1131 848 1145 797 1158 742 1165 682 1165 621 1165 565 1154 516 1131 466 1108 424 1074 389 1031 354 987 328 934 309 871 290 808 281 736 281 655 281 486 315 358 384 272 453 186 553 143 686 143 742 143 796 150 847 163 898 176 948 194 995 217L995 49Z" horiz-adv-x="901" unicode="&#x43;"/><glyph d="M1116 0 922 0 831 285 287 285 195 0 10 0 444 1307 688 1307 1116 0ZM780 444 559 1143 338 444 780 444Z" horiz-adv-x="1112" unicode="&#x41;"/><glyph d="M975 418C975 353 961 294 933 241 905 188 867 142 818 104 769 65 711 35 644 14 577-7 505-18 428-18 409-18 388-17 366-16 343-15 321-14 299-12 277-11 256-9 235-7 214-5 195-3 178 0L178 158C214 149 255 143 302 139 348 135 395 133 442 133 495 133 543 139 586 152 629 165 665 183 695 207 725 230 748 259 764 293 780 326 788 364 788 406 788 487 759 547 701 584 642 621 558 639 449 639L201 639 201 1307 905 1307 905 1155 365 1155 365 788 479 788C542 788 603 782 662 771 721 760 774 740 821 712 867 683 904 645 933 598 961 550 975 490 975 418Z" horiz-adv-x="821" unicode="&#x35;"/><glyph d="M983 397C983 340 971 286 948 236 925 185 890 141 843 104 796 66 738 36 667 15 596-7 514-18 420-18 368-18 321-16 280-13 239-10 200-5 164 0L164 156C205 149 249 143 295 139 341 135 388 133 436 133 501 133 557 139 604 151 650 162 688 179 717 201 746 223 768 250 781 281 794 312 801 348 801 387 801 423 793 454 777 481 761 508 739 530 710 548 681 566 646 580 606 589 565 598 521 602 473 602L324 602 324 745 475 745C514 745 550 750 583 761 615 771 643 786 666 805 689 824 706 848 719 877 731 905 737 937 737 973 737 1043 716 1094 673 1126 630 1158 568 1174 485 1174 441 1174 396 1170 349 1161 302 1152 252 1139 199 1122L199 1274C222 1282 246 1289 272 1296 297 1302 323 1307 349 1312 374 1316 400 1319 425 1322 450 1324 475 1325 498 1325 567 1325 628 1318 681 1303 734 1288 778 1266 813 1238 848 1210 875 1176 893 1136 911 1096 920 1051 920 1001 920 926 901 864 863 813 824 762 772 722 705 692 739 687 773 676 806 660 839 644 868 624 895 599 921 574 942 544 959 510 975 476 983 438 983 397Z" horiz-adv-x="821" unicode="&#x33;"/><glyph horiz-adv-x="1111" unicode="&#x20;"/></font>
</defs>
</svg>
