<svg fill-rule="evenodd" height="203.9402" preserveAspectRatio="xMidYMid" stroke-linejoin="round" stroke-width="28.222" viewBox="2880 12514 7150.3704 4796.3704" width="304.0315" xmlns="http://www.w3.org/2000/svg"><defs><font horiz-adv-x="2048" horiz-origin-x="0" horiz-origin-y="0" vert-adv-y="1024" vert-origin-x="512" vert-origin-y="768"><font-face ascent="1852" descent="423" units-per-em="2048"/><missing-glyph d="M0 0 2047 0 2047 2047 0 2047 0 0Z" horiz-adv-x="2048"/><glyph d="M40 0 40 146 716 922C639 918 572 916 513 916L80 916 80 1062 948 1062 948 943 373 269 262 146C343 152 418 155 489 155L980 155 980 0 40 0ZM398 1194 398 1418 621 1418 621 1194 398 1194Z" horiz-adv-x="954" unicode="&#x17c;"/><glyph d="M862 342 1048 319C1019 210 964 126 885 66 806 6 704-24 581-24 426-24 303 24 212 120 121 215 75 349 75 522 75 701 121 839 213 938 305 1037 424 1086 571 1086 713 1086 829 1038 919 941 1009 844 1054 708 1054 533 1054 522 1054 506 1053 485L261 485C268 368 301 279 360 217 419 155 493 124 582 124 648 124 704 141 751 176 798 211 835 266 862 342ZM271 633 864 633C856 722 833 789 796 834 739 903 664 938 573 938 490 938 421 910 365 855 308 800 277 726 271 633ZM735 0C697-23 668-52 647-86 626-121 615-156 615-191 615-219 623-243 638-262 653-281 678-291 713-291 728-291 744-289 760-284 776-280 791-274 804-267L804-395C755-418 710-430 668-430 634-430 604-425 579-415 554-406 533-392 516-375 499-358 486-339 478-317 469-295 465-271 465-246 465-203 477-160 501-117 525-74 559-35 603 0L735 0Z" horiz-adv-x="1006" unicode="&#x119;"/><glyph d="M40 0 40 146 716 922C639 918 572 916 513 916L80 916 80 1062 948 1062 948 943 373 269 262 146C343 152 418 155 489 155L980 155 980 0 40 0Z" horiz-adv-x="954" unicode="&#x7a;"/><glyph d="M127-409 107-240C146-251 181-256 210-256 250-256 282-249 306-236 330-223 350-204 365-180 376-162 395-117 420-46 423-36 429-21 436-2L33 1062 227 1062 448 447C477 369 502 287 525 201 546 284 570 364 599 443L826 1062 1006 1062 602-18C559-135 525-215 501-259 469-318 432-362 391-389 350-417 300-431 243-431 208-431 170-424 127-409Z" horiz-adv-x="954" unicode="&#x79;"/><glyph d="M528 161 554 2C503-9 458-14 418-14 353-14 302-4 266 17 230 38 205 65 190 99 175 132 168 203 168 311L168 922 36 922 36 1062 168 1062 168 1325 347 1433 347 1062 528 1062 528 922 347 922 347 301C347 250 350 217 357 202 363 187 373 176 388 167 402 158 422 154 449 154 469 154 495 156 528 161Z" horiz-adv-x="531" unicode="&#x74;"/><glyph d="M63 317 241 345C251 274 279 219 325 181 370 143 434 124 516 124 599 124 660 141 700 175 740 208 760 248 760 293 760 334 742 366 707 389 682 405 621 425 523 450 391 483 300 512 249 537 198 561 159 595 133 638 106 681 93 728 93 780 93 827 104 871 126 912 147 952 177 985 214 1012 242 1033 280 1050 329 1065 377 1079 429 1086 484 1086 567 1086 641 1074 704 1050 767 1026 813 994 843 953 873 912 894 857 905 788L729 764C721 819 698 861 660 892 621 923 567 938 497 938 414 938 355 924 320 897 285 870 267 838 267 801 267 778 274 757 289 738 304 719 327 703 358 690 376 683 429 668 517 644 644 610 733 582 784 561 834 539 873 507 902 466 931 425 945 373 945 312 945 252 928 196 893 143 858 90 807 49 741 20 675-9 600-24 517-24 379-24 274 5 202 62 129 119 83 204 63 317Z" horiz-adv-x="901" unicode="&#x73;"/><glyph d="M133 0 133 1062 295 1062 295 901C336 976 375 1026 410 1050 445 1074 483 1086 525 1086 586 1086 647 1067 710 1028L648 861C604 887 560 900 516 900 477 900 441 888 410 865 379 841 356 808 343 766 323 702 313 632 313 556L313 0 133 0Z" horiz-adv-x="583" unicode="&#x72;"/><glyph d="M135 0 135 1062 297 1062 297 911C375 1028 488 1086 635 1086 699 1086 758 1075 812 1052 865 1029 905 998 932 961 959 924 977 879 988 828 995 795 998 736 998 653L998 0 818 0 818 646C818 719 811 774 797 811 783 847 758 876 723 898 687 919 645 930 597 930 520 930 454 906 399 857 343 808 315 716 315 580L315 0 135 0Z" horiz-adv-x="874" unicode="&#x6e;"/><glyph d="M131 0 131 1466 311 1466 311 0 131 0Z" horiz-adv-x="213" unicode="&#x6c;"/><glyph d="M136 0 136 1466 316 1466 316 630 742 1062 975 1062 569 668 1016 0 794 0 443 543 316 421 316 0 136 0Z" horiz-adv-x="901" unicode="&#x6b;"/><glyph d="M136 1259 136 1466 316 1466 316 1259 136 1259ZM136 0 136 1062 316 1062 316 0 136 0Z" horiz-adv-x="187" unicode="&#x69;"/><glyph d="M862 342 1048 319C1019 210 964 126 885 66 806 6 704-24 581-24 426-24 303 24 212 120 121 215 75 349 75 522 75 701 121 839 213 938 305 1037 424 1086 571 1086 713 1086 829 1038 919 941 1009 844 1054 708 1054 533 1054 522 1054 506 1053 485L261 485C268 368 301 279 360 217 419 155 493 124 582 124 648 124 704 141 751 176 798 211 835 266 862 342ZM271 633 864 633C856 722 833 789 796 834 739 903 664 938 573 938 490 938 421 910 365 855 308 800 277 726 271 633Z" horiz-adv-x="1006" unicode="&#x65;"/><glyph d="M828 389 1005 366C986 244 936 149 857 80 777 11 679-24 563-24 418-24 301 24 213 119 124 214 80 350 80 527 80 642 99 742 137 828 175 914 233 979 311 1022 388 1065 473 1086 564 1086 679 1086 774 1057 847 999 920 940 967 857 988 750L813 723C796 794 767 848 725 884 682 920 631 938 571 938 480 938 407 906 350 841 293 776 265 673 265 532 265 389 292 286 347 221 402 156 473 124 561 124 632 124 691 146 738 189 785 232 815 299 828 389Z" horiz-adv-x="954" unicode="&#x63;"/><glyph d="M828 131C761 74 697 34 636 11 574-12 508-24 437-24 320-24 231 5 168 62 105 119 74 191 74 280 74 332 86 380 110 423 133 466 164 500 203 526 241 552 284 572 332 585 367 594 421 603 492 612 637 629 744 650 813 674 814 699 814 714 814 721 814 794 797 846 763 876 717 917 649 937 558 937 473 937 411 922 371 893 330 863 300 810 281 735L105 759C121 834 147 895 184 942 221 988 274 1024 343 1049 412 1074 493 1086 584 1086 675 1086 748 1075 805 1054 862 1033 903 1006 930 974 957 941 975 900 986 851 992 820 995 765 995 685L995 445C995 278 999 172 1007 128 1014 83 1029 41 1052 0L864 0C845 37 833 81 828 131ZM813 533C748 506 650 484 519 465 445 454 393 442 362 429 331 416 308 396 291 371 274 345 266 316 266 285 266 237 284 197 321 165 357 133 410 117 480 117 549 117 611 132 665 163 719 193 759 234 784 287 803 328 813 388 813 467L813 533Z" horiz-adv-x="1006" unicode="&#x61;"/><glyph d="M414 0 25 1466 224 1466 447 505C471 404 492 304 509 205 546 362 568 452 575 476L854 1466 1088 1466 1298 724C1351 540 1389 367 1412 205 1431 298 1455 404 1485 524L1715 1466 1910 1466 1508 0 1321 0 1012 1117C986 1210 971 1268 966 1289 951 1222 936 1164 923 1117L612 0 414 0Z" horiz-adv-x="1986" unicode="&#x57;"/><glyph d="M158 0 158 1466 711 1466C808 1466 883 1461 934 1452 1006 1440 1066 1417 1115 1384 1164 1350 1203 1303 1233 1242 1262 1181 1277 1115 1277 1042 1277 917 1237 812 1158 726 1079 639 935 596 728 596L352 596 352 0 158 0ZM352 769 731 769C856 769 945 792 998 839 1051 886 1077 951 1077 1036 1077 1097 1062 1150 1031 1194 1000 1237 959 1266 908 1280 875 1289 815 1293 727 1293L352 1293 352 769Z" horiz-adv-x="1139" unicode="&#x50;"/><glyph d="M1204 514 1398 465C1357 306 1284 184 1179 101 1073 17 944-25 791-25 633-25 505 7 406 72 307 136 231 229 180 351 128 473 102 604 102 744 102 897 131 1030 190 1144 248 1257 331 1344 439 1403 546 1462 665 1491 794 1491 941 1491 1064 1454 1164 1379 1264 1304 1334 1199 1373 1064L1182 1019C1148 1126 1099 1203 1034 1252 969 1301 888 1325 790 1325 677 1325 583 1298 508 1244 432 1190 379 1118 348 1027 317 936 302 842 302 745 302 620 320 512 357 419 393 326 449 256 526 210 603 164 686 141 775 141 884 141 976 172 1051 235 1126 298 1177 391 1204 514Z" horiz-adv-x="1324" unicode="&#x43;"/><glyph d="M85 384 274 400C288 308 321 239 372 193 423 146 484 123 556 123 643 123 716 156 776 221 836 286 866 373 866 481 866 584 837 665 780 724 722 783 646 813 553 813 495 813 443 800 396 774 349 747 313 713 286 671L117 693 259 1446 988 1446 988 1274 403 1274 324 880C412 941 504 972 601 972 729 972 837 928 925 839 1013 750 1057 636 1057 497 1057 364 1018 250 941 153 847 34 719-25 556-25 423-25 314 12 230 87 145 162 97 261 85 384Z" horiz-adv-x="980" unicode="&#x35;"/><glyph d="M763 0 583 0 583 1147C540 1106 483 1064 413 1023 342 982 279 951 223 930L223 1104C324 1151 412 1209 487 1276 562 1343 616 1409 647 1472L763 1472 763 0Z" horiz-adv-x="556" unicode="&#x31;"/><glyph d="M186 0 186 205 391 205 391 0 186 0Z" horiz-adv-x="239" unicode="&#x2e;"/><glyph horiz-adv-x="556" unicode="&#x20;"/></font><font horiz-adv-x="2048" horiz-origin-x="0" horiz-origin-y="0" vert-adv-y="1024" vert-origin-x="512" vert-origin-y="768"><font-face ascent="1852" descent="423" units-per-em="2048"/><missing-glyph d="M0 0 2047 0 2047 2047 0 2047 0 0Z" horiz-adv-x="2048"/><glyph horiz-adv-x="556" unicode="&#x20;"/></font><font horiz-adv-x="2048" horiz-origin-x="0" horiz-origin-y="0" vert-adv-y="1024" vert-origin-x="512" vert-origin-y="768"><font-face ascent="1535" descent="503" units-per-em="2048"/><missing-glyph d="M0 0 2047 0 2047 2047 0 2047 0 0Z" horiz-adv-x="2048"/><glyph d="M1057 192C1057 185 1057 178 1056 171 1055 163 1054 157 1052 151 1050 145 1048 139 1045 134 1042 128 1037 122 1029 115 1022 108 1007 97 986 82 964 67 936 53 903 39 870 24 832 12 790 2 748-8 701-13 649-13 566-13 491 1 424 30 356 59 299 102 251 158 204 214 168 282 143 362 118 442 105 534 105 637 105 743 118 837 145 922 172 1006 210 1078 259 1137 309 1196 368 1242 437 1274 506 1305 582 1321 665 1321 704 1321 742 1317 780 1310 817 1302 851 1293 882 1282 912 1270 940 1257 966 1241 992 1226 1010 1213 1020 1203 1029 1194 1036 1186 1039 1181 1042 1176 1044 1170 1046 1163 1048 1157 1049 1150 1050 1142 1051 1134 1051 1127 1051 1120 1051 1110 1050 1101 1049 1092 1048 1084 1046 1076 1042 1069 1039 1062 1034 1056 1028 1051 1021 1046 1013 1043 1004 1043 989 1043 973 1050 955 1065 936 1080 914 1095 889 1110 863 1126 831 1140 794 1153 756 1166 711 1172 659 1172 603 1172 551 1161 505 1138 458 1116 418 1083 384 1039 350 995 323 940 304 874 285 808 275 732 275 645 275 562 284 489 302 426 319 363 344 310 377 268 410 226 451 193 499 171 547 149 601 138 663 138 714 138 759 144 796 157 834 170 866 184 893 200 921 216 944 231 964 245 983 260 1000 267 1014 267 1022 267 1029 265 1036 261 1042 257 1047 251 1049 244 1052 237 1054 229 1055 221 1056 212 1057 203 1057 192Z" horiz-adv-x="980" unicode="&#x43;"/><glyph d="M970 423C970 370 962 318 946 265 929 213 903 166 867 124 831 82 785 48 729 22 673-4 606-17 527-17 475-17 429-10 388 3 347 17 312 36 281 61 250 87 224 118 203 155 183 191 166 233 153 280 140 326 131 377 125 431 120 485 117 545 117 609 117 667 120 724 127 781 134 839 145 893 161 946 177 999 198 1048 225 1094 252 1140 286 1180 326 1214 366 1248 414 1274 468 1294 523 1313 586 1323 657 1323 681 1323 705 1321 731 1318 756 1315 780 1311 802 1306 824 1302 842 1296 857 1290 873 1283 884 1277 890 1272 897 1267 901 1262 904 1257 907 1252 909 1247 911 1241 913 1236 914 1230 915 1224 916 1218 916 1211 916 1205 916 1201 916 1194 915 1185 915 1176 913 1168 910 1162 908 1155 903 1150 896 1145 890 1140 881 1138 871 1138 862 1138 850 1140 837 1145 824 1150 809 1156 791 1161 774 1167 753 1172 729 1176 704 1181 675 1183 642 1183 580 1183 527 1170 483 1144 438 1119 402 1084 372 1040 343 995 321 944 307 884 292 824 284 769 282 719 281 728 292 738 315 749 337 759 363 769 390 777 418 786 447 793 478 798 510 803 542 806 577 806 650 806 712 796 763 776 814 756 855 728 885 693 916 657 938 616 951 570 964 523 970 474 970 423ZM803 412C803 450 799 486 791 518 783 550 770 577 752 598 733 620 709 637 678 650 647 662 608 668 562 668 537 668 510 666 483 661 455 656 429 649 405 641 381 633 358 624 335 613 313 602 296 592 284 584 284 499 290 427 301 367 313 307 330 259 352 223 374 188 400 162 432 147 463 132 500 125 544 125 589 125 628 134 660 151 692 168 719 190 740 218 762 245 777 276 788 311 798 345 803 379 803 412Z" horiz-adv-x="900" unicode="&#x36;"/><glyph d="M992 378C992 359 987 343 978 328 969 314 954 307 935 307L795 307 795 40C795 32 793 25 789 18 785 12 779 7 771 3 764 0 756-2 747-4 739-5 728-6 714-6 701-6 690-5 682-4 674-2 666 0 658 3 650 7 644 12 641 18 638 25 636 32 636 40L636 307 111 307C103 307 95 308 88 311 80 313 74 318 68 324 62 331 58 338 56 347 54 355 53 366 53 378 53 388 53 396 54 403 55 411 56 418 58 425 60 432 63 438 66 444 69 450 84 460 110 474L570 1280C573 1285 579 1290 586 1296 593 1301 601 1305 610 1307 618 1310 629 1312 642 1313 654 1314 667 1315 680 1315 694 1315 708 1314 722 1313 735 1311 747 1309 757 1306 767 1303 776 1298 784 1291 791 1284 795 1276 795 1266L795 449 935 449C953 449 967 442 977 429 987 416 992 399 992 378ZM636 1167 666 1167 220 449 636 449 636 1167Z" horiz-adv-x="953" unicode="&#x34;"/><glyph d="M931 75C931 66 930 57 928 49 926 40 923 32 918 25 914 17 908 11 900 7 892 2 883 0 874 0L188 0C180 0 171 1 164 4 156 7 149 12 143 19 137 25 133 33 130 43 127 52 126 63 126 75 126 85 126 93 127 101 128 108 129 115 132 122 135 129 138 135 142 141 145 147 150 154 156 160L452 442C492 505 531 563 569 616 607 669 635 716 655 757 674 798 687 836 693 871 699 906 702 938 702 967 702 995 697 1023 688 1049 679 1075 665 1098 647 1117 629 1137 607 1152 581 1164 554 1175 524 1181 489 1181 451 1181 416 1176 385 1165 354 1154 326 1141 303 1128 280 1115 259 1102 241 1089 223 1076 208 1070 195 1070 188 1070 181 1072 174 1076 168 1080 163 1085 159 1092 155 1099 153 1106 152 1114 151 1121 150 1130 150 1141 150 1150 150 1158 151 1164 152 1170 153 1176 155 1181 156 1187 159 1192 162 1198 165 1203 171 1210 180 1217 188 1224 202 1234 221 1246 241 1258 265 1270 293 1282 321 1294 352 1304 387 1312 422 1321 458 1325 495 1325 557 1325 611 1316 658 1297 705 1278 744 1253 776 1220 808 1188 831 1151 846 1109 861 1067 869 1023 869 978 869 936 865 895 858 853 851 812 836 766 813 717 789 668 756 614 712 556 669 498 612 431 540 355L314 147 874 147C882 147 890 145 898 141 906 137 912 132 917 125 922 118 926 110 928 102 930 93 931 84 931 75Z" horiz-adv-x="848" unicode="&#x32;"/><glyph d="M981 656C981 560 973 471 958 389 942 307 916 236 880 176 844 116 795 68 736 34 676 0 603-17 516-17 436-17 368-2 311 27 255 56 210 100 175 157 140 215 116 285 101 367 86 450 78 545 78 652 78 748 86 837 101 919 116 1000 142 1072 178 1132 215 1192 263 1240 322 1274 382 1308 455 1325 541 1325 621 1325 689 1310 746 1281 803 1251 848 1208 883 1150 918 1093 943 1022 958 939 973 856 981 762 981 656ZM814 645C814 709 812 766 807 818 802 869 794 915 784 956 774 997 761 1031 746 1060 731 1088 714 1111 693 1129 673 1148 649 1161 622 1170 596 1179 566 1183 532 1183 473 1183 425 1169 388 1141 351 1113 321 1075 300 1027 279 979 264 924 256 861 249 798 245 732 245 663 245 567 250 484 261 416 272 347 289 292 312 249 334 206 363 175 397 155 432 135 474 125 525 125 565 125 600 131 629 144 658 156 683 174 705 197 726 221 744 248 758 280 772 312 784 348 792 387 800 426 806 467 809 511 812 555 814 600 814 645Z" horiz-adv-x="927" unicode="&#x30;"/><glyph horiz-adv-x="450" unicode="&#x20;"/></font><font horiz-adv-x="2048" horiz-origin-x="0" horiz-origin-y="0" vert-adv-y="1024" vert-origin-x="512" vert-origin-y="768"><font-face ascent="1535" descent="503" units-per-em="2048"/><missing-glyph d="M0 0 2047 0 2047 2047 0 2047 0 0Z" horiz-adv-x="2048"/><glyph d="M720 917C720 911 720 906 719 899 718 892 716 886 714 880 712 874 710 868 706 862 703 856 699 851 695 846 690 841 685 837 679 834 672 831 665 829 657 829L428 829 324 316C321 294 319 275 316 257 314 240 312 225 312 213 312 180 318 157 329 144 340 131 360 125 388 125 405 125 420 126 433 129 445 132 457 136 469 140 480 144 490 148 497 151 505 154 512 156 520 156 532 156 541 152 548 145 555 137 558 127 558 114 558 107 557 99 556 90 554 81 552 73 550 65 548 58 545 50 541 44 537 37 533 30 527 25 521 19 512 13 500 8 488 4 475-1 462-4 449-7 435-10 421-12 407-14 392-15 378-15 340-15 308-11 280-3 252 5 229 19 209 37 189 55 175 78 166 104 157 131 152 162 152 198 152 207 152 217 153 227 154 238 155 248 157 258 159 267 160 277 162 286 164 296 166 308 169 322L274 829 163 829C150 829 140 833 133 840 126 847 122 860 122 876 122 887 123 897 124 906 126 915 128 925 133 934 137 943 144 951 152 958 160 965 170 968 182 968L298 968 338 1169C339 1176 342 1182 346 1188 351 1194 357 1199 364 1202 372 1206 380 1208 389 1209 399 1210 410 1211 422 1211 433 1211 444 1210 453 1209 463 1208 471 1205 479 1201 486 1196 491 1191 493 1183 495 1176 496 1171 495 1168L452 968 676 968C695 968 707 962 712 949 717 936 720 926 720 917Z" horiz-adv-x="636" unicode="&#x74;"/></font><font horiz-adv-x="2048" horiz-origin-x="0" horiz-origin-y="0" vert-adv-y="1024" vert-origin-x="512" vert-origin-y="768"><font-face ascent="1826" descent="450" units-per-em="2048"/><missing-glyph d="M0 0 2047 0 2047 2047 0 2047 0 0Z" horiz-adv-x="2048"/><glyph d="M405 1384C463 1384 520 1369 575 1340 630 1310 674 1267 705 1212 736 1156 751 1098 751 1038 751 943 717 861 650 794 582 726 500 692 405 692 310 692 228 726 161 794 93 861 59 943 59 1038 59 1098 75 1156 106 1212 137 1267 180 1310 235 1340 290 1369 347 1384 405 1384ZM405 1254C345 1254 294 1233 253 1191 211 1149 190 1098 190 1039 190 980 211 929 253 887 295 845 346 824 405 824 464 824 515 845 557 887 599 929 620 980 620 1039 620 1098 599 1149 557 1191 515 1233 464 1254 405 1254Z" horiz-adv-x="715" unicode="&#xb0;"/></font>
</defs>
</svg>
