<svg fill-rule="evenodd" height="395.2858" preserveAspectRatio="xMidYMid" stroke-linejoin="round" stroke-width="28.222" viewBox="4577 17708 11621.37 9296.537" width="494.137" xmlns="http://www.w3.org/2000/svg"><defs><font horiz-adv-x="2048" horiz-origin-x="0" horiz-origin-y="0" vert-adv-y="1024" vert-origin-x="512" vert-origin-y="768"><font-face ascent="1852" descent="423" units-per-em="2048"/><missing-glyph d="M0 0 2047 0 2047 2047 0 2047 0 0Z" horiz-adv-x="2048"/><glyph d="M40 0 40 146 716 922C639 918 572 916 513 916L80 916 80 1062 948 1062 948 943 373 269 262 146C343 152 418 155 489 155L980 155 980 0 40 0ZM398 1194 398 1418 621 1418 621 1194 398 1194Z" horiz-adv-x="954" unicode="&#x17c;"/><glyph d="M63 317 241 345C251 274 279 219 325 181 370 143 434 124 516 124 599 124 660 141 700 175 740 208 760 248 760 293 760 334 742 366 707 389 682 405 621 425 523 450 391 483 300 512 249 537 198 561 159 595 133 638 106 681 93 728 93 780 93 827 104 871 126 912 147 952 177 985 214 1012 242 1033 280 1050 329 1065 377 1079 429 1086 484 1086 567 1086 641 1074 704 1050 767 1026 813 994 843 953 873 912 894 857 905 788L729 764C721 819 698 861 660 892 621 923 567 938 497 938 414 938 355 924 320 897 285 870 267 838 267 801 267 778 274 757 289 738 304 719 327 703 358 690 376 683 429 668 517 644 644 610 733 582 784 561 834 539 873 507 902 466 931 425 945 373 945 312 945 252 928 196 893 143 858 90 807 49 741 20 675-9 600-24 517-24 379-24 274 5 202 62 129 119 83 204 63 317ZM394 1194 527 1474 763 1474 543 1194 394 1194Z" horiz-adv-x="901" unicode="&#x15b;"/><glyph d="M133 574 3 464 3 622 133 732 133 1466 312 1466 312 884 447 999 447 842 312 727 312 0 133 0 133 574Z" horiz-adv-x="451" unicode="&#x142;"/><glyph d="M862 342 1048 319C1019 210 964 126 885 66 806 6 704-24 581-24 426-24 303 24 212 120 121 215 75 349 75 522 75 701 121 839 213 938 305 1037 424 1086 571 1086 713 1086 829 1038 919 941 1009 844 1054 708 1054 533 1054 522 1054 506 1053 485L261 485C268 368 301 279 360 217 419 155 493 124 582 124 648 124 704 141 751 176 798 211 835 266 862 342ZM271 633 864 633C856 722 833 789 796 834 739 903 664 938 573 938 490 938 421 910 365 855 308 800 277 726 271 633ZM735 0C697-23 668-52 647-86 626-121 615-156 615-191 615-219 623-243 638-262 653-281 678-291 713-291 728-291 744-289 760-284 776-280 791-274 804-267L804-395C755-418 710-430 668-430 634-430 604-425 579-415 554-406 533-392 516-375 499-358 486-339 478-317 469-295 465-271 465-246 465-203 477-160 501-117 525-74 559-35 603 0L735 0Z" horiz-adv-x="1006" unicode="&#x119;"/><glyph d="M828 389 1005 366C986 244 936 149 857 80 777 11 679-24 563-24 418-24 301 24 213 119 124 214 80 350 80 527 80 642 99 742 137 828 175 914 233 979 311 1022 388 1065 473 1086 564 1086 679 1086 774 1057 847 999 920 940 967 857 988 750L813 723C796 794 767 848 725 884 682 920 631 938 571 938 480 938 407 906 350 841 293 776 265 673 265 532 265 389 292 286 347 221 402 156 473 124 561 124 632 124 691 146 738 189 785 232 815 299 828 389ZM424 1194 557 1474 793 1474 573 1194 424 1194Z" horiz-adv-x="954" unicode="&#x107;"/><glyph d="M40 0 40 146 716 922C639 918 572 916 513 916L80 916 80 1062 948 1062 948 943 373 269 262 146C343 152 418 155 489 155L980 155 980 0 40 0Z" horiz-adv-x="954" unicode="&#x7a;"/><glyph d="M127-409 107-240C146-251 181-256 210-256 250-256 282-249 306-236 330-223 350-204 365-180 376-162 395-117 420-46 423-36 429-21 436-2L33 1062 227 1062 448 447C477 369 502 287 525 201 546 284 570 364 599 443L826 1062 1006 1062 602-18C559-135 525-215 501-259 469-318 432-362 391-389 350-417 300-431 243-431 208-431 170-424 127-409Z" horiz-adv-x="954" unicode="&#x79;"/><glyph d="M331 0 6 1062 192 1062 361 449 424 221C427 232 445 305 479 440L648 1062 833 1062 992 446 1045 243 1106 448 1288 1062 1463 1062 1131 0 944 0 775 636 734 817 519 0 331 0Z" horiz-adv-x="1456" unicode="&#x77;"/><glyph d="M831 0 831 156C748 36 636-24 494-24 431-24 373-12 319 12 264 36 224 66 198 103 171 139 153 183 142 236 135 271 131 327 131 404L131 1062 311 1062 311 473C311 379 315 316 322 283 333 236 357 199 394 172 431 145 476 131 530 131 584 131 635 145 682 173 729 200 763 238 783 286 802 333 812 402 812 493L812 1062 992 1062 992 0 831 0Z" horiz-adv-x="874" unicode="&#x75;"/><glyph d="M528 161 554 2C503-9 458-14 418-14 353-14 302-4 266 17 230 38 205 65 190 99 175 132 168 203 168 311L168 922 36 922 36 1062 168 1062 168 1325 347 1433 347 1062 528 1062 528 922 347 922 347 301C347 250 350 217 357 202 363 187 373 176 388 167 402 158 422 154 449 154 469 154 495 156 528 161Z" horiz-adv-x="531" unicode="&#x74;"/><glyph d="M133 0 133 1062 295 1062 295 901C336 976 375 1026 410 1050 445 1074 483 1086 525 1086 586 1086 647 1067 710 1028L648 861C604 887 560 900 516 900 477 900 441 888 410 865 379 841 356 808 343 766 323 702 313 632 313 556L313 0 133 0Z" horiz-adv-x="583" unicode="&#x72;"/><glyph d="M68 531C68 728 123 873 232 968 323 1047 435 1086 566 1086 712 1086 831 1038 924 943 1017 847 1063 715 1063 546 1063 409 1043 302 1002 224 961 145 901 84 823 41 744-2 659-24 566-24 417-24 297 24 206 119 114 214 68 352 68 531ZM253 531C253 395 283 293 342 226 401 158 476 124 566 124 655 124 730 158 789 226 848 294 878 398 878 537 878 668 848 768 789 836 729 903 655 937 566 937 476 937 401 903 342 836 283 769 253 667 253 531Z" horiz-adv-x="1006" unicode="&#x6f;"/><glyph d="M135 0 135 1062 297 1062 297 911C375 1028 488 1086 635 1086 699 1086 758 1075 812 1052 865 1029 905 998 932 961 959 924 977 879 988 828 995 795 998 736 998 653L998 0 818 0 818 646C818 719 811 774 797 811 783 847 758 876 723 898 687 919 645 930 597 930 520 930 454 906 399 857 343 808 315 716 315 580L315 0 135 0Z" horiz-adv-x="874" unicode="&#x6e;"/><glyph d="M131 0 131 1466 311 1466 311 0 131 0Z" horiz-adv-x="213" unicode="&#x6c;"/><glyph d="M136 0 136 1466 316 1466 316 630 742 1062 975 1062 569 668 1016 0 794 0 443 543 316 421 316 0 136 0Z" horiz-adv-x="901" unicode="&#x6b;"/><glyph d="M136 1259 136 1466 316 1466 316 1259 136 1259ZM136 0 136 1062 316 1062 316 0 136 0Z" horiz-adv-x="187" unicode="&#x69;"/><glyph d="M862 342 1048 319C1019 210 964 126 885 66 806 6 704-24 581-24 426-24 303 24 212 120 121 215 75 349 75 522 75 701 121 839 213 938 305 1037 424 1086 571 1086 713 1086 829 1038 919 941 1009 844 1054 708 1054 533 1054 522 1054 506 1053 485L261 485C268 368 301 279 360 217 419 155 493 124 582 124 648 124 704 141 751 176 798 211 835 266 862 342ZM271 633 864 633C856 722 833 789 796 834 739 903 664 938 573 938 490 938 421 910 365 855 308 800 277 726 271 633Z" horiz-adv-x="1006" unicode="&#x65;"/><glyph d="M824 0 824 134C757 29 658-24 527-24 442-24 365-1 294 46 223 93 168 158 129 242 90 325 70 421 70 530 70 636 88 732 123 819 158 905 211 971 282 1017 353 1063 432 1086 519 1086 583 1086 640 1073 690 1046 740 1019 781 983 812 940L812 1466 991 1466 991 0 824 0ZM255 530C255 394 284 292 341 225 398 158 466 124 544 124 623 124 690 156 745 221 800 285 827 383 827 515 827 660 799 767 743 835 687 903 618 937 536 937 456 937 389 904 336 839 282 774 255 671 255 530Z" horiz-adv-x="953" unicode="&#x64;"/><glyph d="M301 0 134 0 134 1466 314 1466 314 943C390 1038 487 1086 605 1086 670 1086 732 1073 791 1047 849 1020 897 983 935 936 972 888 1002 830 1023 763 1044 696 1055 624 1055 547 1055 365 1010 224 920 125 830 26 722-24 596-24 471-24 372 28 301 133L301 0ZM299 539C299 412 316 320 351 263 408 170 484 124 581 124 660 124 728 158 785 227 842 295 871 397 871 532 871 671 844 773 789 839 734 905 667 938 589 938 510 938 442 904 385 836 328 767 299 668 299 539Z" horiz-adv-x="927" unicode="&#x62;"/><glyph d="M828 131C761 74 697 34 636 11 574-12 508-24 437-24 320-24 231 5 168 62 105 119 74 191 74 280 74 332 86 380 110 423 133 466 164 500 203 526 241 552 284 572 332 585 367 594 421 603 492 612 637 629 744 650 813 674 814 699 814 714 814 721 814 794 797 846 763 876 717 917 649 937 558 937 473 937 411 922 371 893 330 863 300 810 281 735L105 759C121 834 147 895 184 942 221 988 274 1024 343 1049 412 1074 493 1086 584 1086 675 1086 748 1075 805 1054 862 1033 903 1006 930 974 957 941 975 900 986 851 992 820 995 765 995 685L995 445C995 278 999 172 1007 128 1014 83 1029 41 1052 0L864 0C845 37 833 81 828 131ZM813 533C748 506 650 484 519 465 445 454 393 442 362 429 331 416 308 396 291 371 274 345 266 316 266 285 266 237 284 197 321 165 357 133 410 117 480 117 549 117 611 132 665 163 719 193 759 234 784 287 803 328 813 388 813 467L813 533Z" horiz-adv-x="1006" unicode="&#x61;"/><glyph d="M92 471 275 487C284 414 304 354 336 307 367 260 416 222 483 193 550 164 625 149 708 149 782 149 847 160 904 182 961 204 1003 234 1031 273 1058 311 1072 353 1072 398 1072 444 1059 484 1032 519 1005 553 961 582 900 605 861 620 774 644 639 677 504 709 410 739 356 768 286 805 234 850 200 905 165 959 148 1020 148 1087 148 1161 169 1230 211 1295 253 1359 314 1408 395 1441 476 1474 565 1491 664 1491 773 1491 869 1474 952 1439 1035 1404 1098 1352 1143 1284 1188 1216 1212 1139 1215 1053L1029 1039C1019 1132 985 1202 928 1249 870 1296 785 1320 672 1320 555 1320 469 1299 416 1256 362 1213 335 1161 335 1100 335 1047 354 1004 392 970 429 936 527 901 685 866 842 830 950 799 1009 772 1094 733 1157 683 1198 623 1239 562 1259 493 1259 414 1259 336 1237 263 1192 194 1147 125 1083 71 1000 33 916-6 822-25 717-25 584-25 473-6 384 33 294 72 224 130 173 208 122 285 95 373 92 471Z" horiz-adv-x="1166" unicode="&#x53;"/><glyph d="M763 0 583 0 583 1147C540 1106 483 1064 413 1023 342 982 279 951 223 930L223 1104C324 1151 412 1209 487 1276 562 1343 616 1409 647 1472L763 1472 763 0Z" horiz-adv-x="556" unicode="&#x31;"/><glyph d="M85 723C85 896 103 1036 139 1142 174 1247 227 1329 298 1386 368 1443 456 1472 563 1472 642 1472 711 1456 770 1425 829 1393 878 1347 917 1288 956 1228 986 1155 1008 1070 1030 984 1041 868 1041 723 1041 551 1023 412 988 307 953 201 900 119 830 62 759 4 670-25 563-25 422-25 311 26 230 127 133 249 85 448 85 723ZM270 723C270 482 298 322 355 243 411 163 480 123 563 123 646 123 715 163 772 243 828 323 856 483 856 723 856 964 828 1125 772 1204 715 1283 645 1323 561 1323 478 1323 412 1288 363 1218 301 1129 270 964 270 723Z" horiz-adv-x="980" unicode="&#x30;"/><glyph horiz-adv-x="556" unicode="&#x20;"/></font><font horiz-adv-x="2048" horiz-origin-x="0" horiz-origin-y="0" vert-adv-y="1024" vert-origin-x="512" vert-origin-y="768"><font-face ascent="1852" descent="423" units-per-em="2048"/><missing-glyph d="M0 0 2047 0 2047 2047 0 2047 0 0Z" horiz-adv-x="2048"/><glyph d="M85 816 85 1074 1110 1074 1110 816 85 816ZM85 372 85 631 1110 631 1110 372 85 372Z" horiz-adv-x="1033" unicode="&#x3d;"/><glyph horiz-adv-x="556" unicode="&#x20;"/></font><font horiz-adv-x="2048" horiz-origin-x="0" horiz-origin-y="0" vert-adv-y="1024" vert-origin-x="512" vert-origin-y="768"><font-face ascent="1931" descent="450" units-per-em="2048"/><missing-glyph d="M0 0 2047 0 2047 2047 0 2047 0 0Z" horiz-adv-x="2048"/><glyph d="M1363 1365 1284 1003 1156 1003C1155 1077 1151 1129 1143 1159 1135 1188 1122 1211 1105 1226 1087 1241 1062 1248 1030 1248L941 1248 726 270C722 252 719 238 718 229 717 219 716 208 715 197 714 185 713 170 713 153 713 122 721 101 737 88 752 75 777 68 810 66L796 0 265 0 279 66C308 70 332 79 349 92 366 105 381 125 393 152 404 178 416 217 428 270L643 1248 563 1248C537 1248 516 1246 500 1241 483 1236 469 1230 457 1222 445 1213 432 1202 418 1187 404 1172 389 1151 372 1126 355 1100 336 1066 317 1024L186 1024 261 1365 1363 1365Z" horiz-adv-x="1165" unicode="&#x54;"/><glyph d="M728 312C715 255 709 214 709 189 709 163 716 143 731 130 746 116 770 106 803 101 836 95 885 92 950 91L931 0 109 0 128 91C200 94 252 99 285 105 317 111 342 120 359 133 376 146 389 163 400 185 411 206 422 244 434 297L578 950C585 983 589 1010 589 1031 589 1050 585 1064 577 1073 569 1082 558 1086 544 1086 531 1086 516 1084 500 1079 484 1074 465 1065 442 1053 419 1041 374 1016 307 979L256 1082 831 1381 967 1381C948 1310 928 1222 905 1115L728 312Z" horiz-adv-x="874" unicode="&#x31;"/></font><font horiz-adv-x="2048" horiz-origin-x="0" horiz-origin-y="0" vert-adv-y="1024" vert-origin-x="512" vert-origin-y="768"><font-face ascent="1588" descent="450" units-per-em="2048"/><missing-glyph d="M0 0 2047 0 2047 2047 0 2047 0 0Z" horiz-adv-x="2048"/><glyph d="M792 721 794 708C869 679 926 636 965 580 1004 523 1023 455 1023 376 1023 298 1004 229 967 170 930 111 876 65 805 33 734 0 651-16 556-16 467-16 390-1 323 29 256 58 204 102 167 159 130 216 111 283 111 360 111 418 121 468 141 511 161 554 187 589 220 617 252 644 293 669 342 692L340 705C197 767 125 873 125 1024 125 1093 144 1154 182 1208 219 1262 273 1304 343 1335 412 1366 489 1381 574 1381 670 1381 751 1368 816 1341 881 1314 931 1275 964 1224 997 1173 1013 1111 1013 1040 1013 967 995 904 959 851 923 798 867 754 792 721ZM313 1033C313 994 318 957 327 922 336 887 351 857 372 832 393 807 420 787 453 772 486 757 526 749 574 749 629 749 676 760 714 782 751 803 779 835 798 877 816 918 825 966 825 1021 825 1081 814 1132 793 1174 771 1215 741 1246 703 1266 665 1286 621 1296 572 1296 488 1296 424 1273 380 1228 335 1182 313 1117 313 1033ZM302 377C302 334 307 293 317 256 327 218 343 185 365 158 386 131 414 109 448 93 482 77 523 69 572 69 627 69 674 80 713 103 752 125 781 158 802 202 822 246 832 298 832 358 832 422 821 477 799 524 777 570 746 605 706 630 666 654 620 666 567 666 518 666 476 658 443 643 409 628 382 607 361 581 340 555 325 525 316 490 307 455 302 417 302 377Z" horiz-adv-x="927" unicode="&#x38;"/><glyph d="M911 1326 911 1277C808 1277 717 1255 638 1211 559 1167 493 1102 441 1017 388 932 351 830 330 713L340 709C396 749 451 778 506 797 560 816 619 825 682 825 757 825 822 809 875 776 928 743 967 696 994 637 1021 577 1034 507 1034 427 1034 340 1017 264 984 198 951 131 899 79 830 41 760 3 674-16 572-16 426-16 316 29 242 120 167 211 130 344 130 521 130 640 149 751 186 854 223 957 276 1048 345 1125 414 1202 493 1262 584 1307 675 1351 770 1376 870 1381L911 1326ZM613 720C580 720 549 716 519 709 488 702 460 691 433 677 406 663 380 645 355 624 347 617 341 609 337 601 330 588 326 573 324 554 322 535 321 504 321 460 321 333 342 236 385 169 428 102 492 69 579 69 629 69 671 78 705 95 739 112 767 136 788 167 809 197 824 233 833 274 842 315 846 359 846 407 846 506 826 583 785 638 744 693 687 720 613 720Z" horiz-adv-x="927" unicode="&#x36;"/><glyph d="M516 49C557 60 585 72 599 85 613 98 622 116 627 140 631 164 633 201 633 250L633 414 77 414 77 489 662 1372 805 1372 805 511 826 511C865 511 892 514 909 520 926 525 940 535 951 550 962 564 972 587 981 620L1057 620 1045 414 805 414 805 250C805 205 807 173 810 152 813 131 818 115 825 103 832 91 842 81 856 73 869 65 891 57 922 49L922 0 516 0 516 49ZM242 511 633 511 633 760C633 823 634 893 636 971 638 1048 640 1107 643 1146L633 1146 242 525 242 511Z" horiz-adv-x="1006" unicode="&#x34;"/><glyph d="M159 1082 159 1272C236 1309 309 1336 376 1354 443 1372 508 1381 571 1381 646 1381 712 1369 769 1346 826 1323 869 1289 899 1246 929 1202 944 1150 944 1089 944 1032 933 983 910 940 887 897 856 859 815 827 774 795 720 764 655 733L655 724C696 717 735 704 773 687 810 669 844 646 873 618 902 590 926 557 944 518 961 479 970 434 970 384 970 307 953 238 920 178 886 118 834 71 765 36 696 1 611-16 512-16 455-16 393-9 327 4 260 17 199 34 144 55L144 267 264 267C287 198 318 147 357 116 395 85 447 69 513 69 600 69 665 93 710 140 754 187 776 257 776 350 776 447 747 522 688 573 629 624 543 650 430 650L340 650 340 738C430 743 506 761 568 790 629 819 675 857 705 903 735 949 750 1001 750 1058 750 1132 730 1189 691 1229 652 1269 594 1289 519 1289 456 1289 405 1272 366 1238 327 1204 298 1152 279 1082L159 1082Z" horiz-adv-x="848" unicode="&#x33;"/><glyph d="M702 160C735 160 761 162 781 166 801 170 817 177 829 186 841 195 851 208 858 223 865 238 873 261 884 292L969 292 952 0 129 0 129 48C158 118 196 190 245 263 294 336 363 423 452 522 529 607 585 672 619 716 656 764 684 806 703 841 721 876 734 909 742 940 750 971 754 1002 754 1033 754 1083 746 1127 730 1166 714 1204 690 1234 657 1256 624 1278 582 1289 532 1289 407 1289 323 1220 280 1081L159 1081 159 1273C240 1311 315 1339 386 1356 456 1373 519 1381 575 1381 699 1381 793 1354 856 1300 919 1245 951 1166 951 1063 951 1028 948 995 941 966 934 936 923 907 908 878 893 849 872 817 847 784 822 751 794 717 763 683 732 648 679 591 604 511 477 377 384 260 325 160L702 160Z" horiz-adv-x="848" unicode="&#x32;"/><glyph d="M695 261C695 222 697 193 702 174 706 154 714 138 725 126 736 113 751 104 772 97 793 90 819 84 850 81 881 77 923 74 974 73L974 0 235 0 235 73C309 76 362 81 394 87 425 92 449 101 466 112 483 123 495 139 503 160 510 181 514 214 514 261L514 1072C514 1099 509 1118 500 1131 491 1143 477 1149 459 1149 438 1149 407 1138 368 1116 329 1094 280 1064 222 1025L178 1102 646 1381 701 1381C697 1317 695 1228 695 1115L695 261Z" horiz-adv-x="821" unicode="&#x31;"/><glyph d="M556-16C412-16 305 41 235 154 164 267 129 439 129 670 129 793 140 899 162 988 183 1077 214 1151 253 1210 292 1268 338 1311 393 1339 448 1367 507 1381 572 1381 718 1381 827 1325 898 1212 969 1099 1005 929 1005 701 1005 465 967 287 891 166 814 45 703-16 556-16ZM324 700C324 483 344 323 385 222 425 120 487 69 572 69 653 69 713 117 752 213 791 308 810 456 810 657 810 810 800 935 780 1030 760 1125 732 1193 697 1234 661 1275 618 1296 567 1296 521 1296 483 1282 452 1255 421 1228 396 1188 377 1137 358 1086 344 1023 336 950 328 876 324 793 324 700Z" horiz-adv-x="874" unicode="&#x30;"/><glyph d="M311 232 311 0 109 0 109 232 311 232Z" horiz-adv-x="213" unicode="&#x2e;"/><glyph horiz-adv-x="450" unicode="&#x20;"/></font><font horiz-adv-x="2048" horiz-origin-x="0" horiz-origin-y="0" vert-adv-y="1024" vert-origin-x="512" vert-origin-y="768"><font-face ascent="1588" descent="450" units-per-em="2048"/><missing-glyph d="M0 0 2047 0 2047 2047 0 2047 0 0Z" horiz-adv-x="2048"/><glyph d="M1063 1345 1063 1038 929 1038C911 1103 891 1150 869 1182 847 1213 821 1235 791 1248 762 1261 727 1268 685 1268 623 1268 567 1247 518 1205 469 1163 429 1099 400 1012 371 925 357 818 357 693 357 565 369 458 393 371 417 283 451 218 496 175 541 132 596 111 661 111 712 111 753 118 784 132 815 146 841 168 863 199 884 230 907 282 930 354L1063 354 1063 38C989 19 920 5 856-3 791-12 719-16 641-16 468-16 337 43 249 159 161 276 117 448 117 676 117 819 139 944 185 1052 230 1161 297 1244 386 1304 475 1364 581 1394 704 1394 764 1394 819 1391 871 1385 922 1378 986 1365 1063 1345Z" horiz-adv-x="980" unicode="&#x43;"/><glyph d="M506 83C553 95 582 107 593 117 604 127 611 142 615 163 619 184 621 218 621 265L621 406 76 406 76 506 658 1385 830 1385 830 541 830 541C866 541 890 543 904 548 917 552 928 560 937 572 945 583 955 608 967 648L1077 648 1064 406 830 406 830 265C830 222 832 191 834 173 837 154 841 140 846 131 852 122 860 114 871 108 882 101 907 93 945 83L945 0 506 0 506 83ZM278 541 621 541 621 765C621 827 622 896 624 973 626 1049 628 1100 630 1124L653 1124 278 529 278 541Z" horiz-adv-x="1033" unicode="&#x34;"/><glyph d="M565-16C416-16 306 42 234 158 162 274 126 447 126 677 126 799 137 905 159 994 181 1083 211 1158 251 1217 291 1277 339 1321 396 1350 453 1379 514 1394 581 1394 732 1394 844 1336 917 1221 990 1106 1026 934 1026 707 1026 472 987 293 910 169 832 46 717-16 565-16ZM359 706C359 495 377 343 415 249 452 155 507 108 581 108 651 108 704 152 740 241 776 329 794 470 794 664 794 813 785 932 765 1023 746 1114 721 1178 689 1215 657 1252 619 1271 576 1271 536 1271 503 1259 476 1235 449 1211 426 1175 408 1126 390 1078 378 1019 370 949 362 879 359 798 359 706Z" horiz-adv-x="927" unicode="&#x30;"/></font><font horiz-adv-x="2048" horiz-origin-x="0" horiz-origin-y="0" vert-adv-y="1024" vert-origin-x="512" vert-origin-y="768"><font-face ascent="1588" descent="450" units-per-em="2048"/><missing-glyph d="M0 0 2047 0 2047 2047 0 2047 0 0Z" horiz-adv-x="2048"/><glyph d="M293 717C316 717 337 712 356 701 375 690 389 675 399 656 409 636 414 614 414 590 414 565 409 543 399 524 388 504 374 489 355 479 336 468 316 463 293 463 271 463 251 468 233 479 214 489 200 504 190 524 179 543 174 565 174 590 174 614 179 636 189 656 199 675 213 690 232 701 250 712 270 717 293 717Z" horiz-adv-x="265" unicode="&#xb7;"/><glyph d="M367 802 381 798C421 838 454 868 480 889 505 909 530 925 554 938 578 950 601 959 622 964 643 969 664 972 686 972 753 972 807 957 849 926 891 895 920 848 936 785 986 836 1027 873 1058 897 1089 921 1120 940 1153 953 1185 966 1220 972 1257 972 1302 972 1340 966 1373 953 1405 940 1432 920 1455 893 1477 866 1493 832 1504 791 1514 750 1519 696 1519 627L1519 250C1519 199 1521 164 1524 145 1527 126 1532 111 1539 100 1545 89 1554 80 1567 73 1580 65 1601 57 1631 49L1631 0 1238 0 1238 49C1264 57 1283 64 1294 70 1305 76 1315 84 1323 95 1330 106 1336 122 1341 145 1345 167 1347 201 1347 246L1347 508C1347 565 1346 612 1343 649 1340 686 1335 715 1329 737 1322 759 1315 776 1306 789 1297 802 1286 813 1275 822 1264 831 1250 839 1235 844 1220 849 1199 852 1174 852 1147 852 1123 847 1100 836 1077 825 1052 807 1025 782 998 757 978 731 966 706 954 680 948 650 948 615L948 250C948 199 950 164 953 145 956 126 961 111 968 100 974 89 983 80 996 73 1009 65 1030 57 1060 49L1060 0 667 0 667 49C693 57 712 64 723 70 734 76 744 84 752 95 759 106 765 122 770 145 774 167 776 201 776 246L776 508C776 567 774 616 771 653 768 690 763 720 756 743 749 766 740 784 729 798 718 812 706 823 695 830 684 837 670 843 655 847 640 850 622 852 603 852 576 852 550 846 526 834 502 821 478 803 453 780 428 757 409 732 396 707 383 682 377 654 377 625L377 250C377 212 378 183 380 163 382 143 385 127 390 116 394 105 399 96 406 89 413 82 422 75 435 69 447 62 465 56 490 49L490 0 98 0 98 49C123 57 142 64 153 70 164 76 173 84 181 95 189 106 195 122 199 144 203 166 205 200 205 247L205 683C205 726 204 760 203 786 202 812 197 833 189 849 181 864 169 876 153 884 136 891 113 898 83 903L83 956 317 965 378 965 367 802Z" horiz-adv-x="1562" unicode="&#x6d;"/><glyph d="M772 1087C772 1151 772 1196 771 1221 770 1246 767 1268 763 1286 758 1303 752 1317 745 1327 737 1337 727 1345 714 1351 701 1357 677 1363 643 1369L643 1421 885 1431 944 1431 944 273C944 221 945 184 947 162 949 139 953 121 960 108 967 95 977 84 992 76 1006 67 1031 59 1067 52L1067 0 831-10 771-10 783 154 768 158C726 113 690 80 659 58 628 35 595 17 560 4 525-9 487-16 447-16 338-16 253 26 194 109 135 192 105 311 105 468 105 577 124 670 163 747 202 823 254 880 320 917 385 954 459 973 541 973 585 973 625 970 661 963 697 956 734 944 772 928L772 1087ZM772 593C772 645 770 687 765 718 760 749 753 776 742 797 731 818 716 836 697 851 678 866 658 876 636 883 613 890 586 893 555 893 470 893 405 859 360 791 315 722 293 624 293 496 293 368 311 271 348 204 385 137 440 104 515 104 544 104 569 107 588 112 607 117 626 125 645 136 664 147 683 162 702 181 721 200 736 218 745 234 754 250 760 268 765 289 770 310 772 336 772 369L772 593Z" horiz-adv-x="980" unicode="&#x64;"/></font><font horiz-adv-x="2048" horiz-origin-x="0" horiz-origin-y="0" vert-adv-y="1024" vert-origin-x="512" vert-origin-y="768"><font-face ascent="1588" descent="450" units-per-em="2048"/><missing-glyph d="M0 0 2047 0 2047 2047 0 2047 0 0Z" horiz-adv-x="2048"/><glyph d="M389 768C328 768 274 781 228 809 181 836 145 873 120 921 95 969 82 1023 82 1083 82 1142 96 1195 123 1243 150 1291 187 1328 236 1355 284 1381 338 1394 398 1394 458 1394 512 1381 559 1354 607 1327 644 1290 670 1242 697 1195 710 1141 710 1082 710 1023 696 970 668 922 640 874 602 836 553 809 504 781 449 768 389 768ZM395 1257C362 1257 333 1250 308 1235 282 1220 262 1199 248 1173 234 1147 227 1117 227 1082 227 1047 234 1016 248 989 261 963 281 942 307 928 332 913 361 906 395 906 428 906 458 913 484 928 510 943 530 963 544 990 558 1017 565 1047 565 1082 565 1116 558 1146 544 1173 529 1199 509 1220 484 1235 458 1250 428 1257 395 1257Z" horiz-adv-x="663" unicode="&#xb0;"/><glyph horiz-adv-x="450" unicode="&#x20;"/></font><font horiz-adv-x="2048" horiz-origin-x="0" horiz-origin-y="0" vert-adv-y="1024" vert-origin-x="512" vert-origin-y="768"><font-face ascent="1826" descent="450" units-per-em="2048"/><missing-glyph d="M0 0 2047 0 2047 2047 0 2047 0 0Z" horiz-adv-x="2048"/><glyph d="M1041 453-18 453-18 526 1041 526 1041 453Z" horiz-adv-x="1085" unicode="&#x2013;"/><glyph d="M512 943C651 943 762 890 846 785 917 695 953 592 953 475 953 393 933 310 894 226 855 142 801 79 732 36 663-7 586-28 501-28 363-28 253 27 172 137 103 230 69 334 69 449 69 533 90 617 132 700 173 783 228 844 296 884 364 923 436 943 512 943ZM481 878C446 878 410 868 375 847 339 826 310 789 288 736 266 683 255 616 255 533 255 400 282 285 335 188 388 91 457 43 544 43 609 43 662 70 704 123 746 176 767 268 767 398 767 561 732 689 662 782 615 846 554 878 481 878Z" horiz-adv-x="927" unicode="&#x6f;"/><glyph d="M336 748C403 815 442 853 454 863 484 888 516 908 551 922 586 936 620 943 654 943 711 943 761 926 802 893 843 860 871 811 885 748 954 828 1012 881 1059 906 1106 931 1155 943 1205 943 1254 943 1297 931 1335 906 1372 881 1402 840 1424 783 1439 744 1446 684 1446 601L1446 207C1446 150 1450 110 1459 89 1466 74 1478 62 1496 52 1514 41 1543 36 1584 36L1584 0 1132 0 1132 36 1151 36C1190 36 1221 44 1243 59 1258 70 1269 87 1276 110 1279 121 1280 154 1280 207L1280 601C1280 676 1271 728 1253 759 1227 802 1185 823 1128 823 1093 823 1057 814 1022 797 986 779 943 746 892 698L890 687 892 644 892 207C892 144 896 105 903 90 910 75 923 62 942 52 961 41 994 36 1041 36L1041 0 578 0 578 36C629 36 664 42 683 54 702 66 715 84 722 108 725 119 727 152 727 207L727 601C727 676 716 729 694 762 665 805 624 826 571 826 535 826 499 816 464 797 409 768 366 735 336 698L336 207C336 147 340 108 349 90 357 72 369 59 386 50 402 41 435 36 485 36L485 0 32 0 32 36C74 36 103 41 120 50 137 59 149 73 158 93 167 112 171 150 171 207L171 557C171 658 168 723 162 752 157 774 150 789 140 798 130 806 116 810 99 810 80 810 58 805 32 795L17 831 293 943 336 943 336 748Z" horiz-adv-x="1536" unicode="&#x6d;"/><glyph d="M379 1422 379 207C379 150 383 112 392 93 400 74 413 60 430 51 447 41 480 36 527 36L527 0 78 0 78 36C120 36 149 40 164 49 179 58 191 72 200 92 209 112 213 150 213 207L213 1039C213 1142 211 1206 206 1230 201 1253 194 1269 184 1278 173 1287 160 1291 144 1291 127 1291 105 1286 78 1275L61 1310 334 1422 379 1422Z" horiz-adv-x="477" unicode="&#x6c;"/><glyph d="M110-341 110-297C179-274 232-239 270-191 307-144 326-93 326-40 326-27 323-17 317-8 312-2 308 1 303 1 296 1 280-6 255-19 243-25 230-28 217-28 184-28 158-18 139 1 120 20 110 47 110 81 110 114 123 142 148 165 173 188 203 200 239 200 283 200 322 181 357 143 391 104 408 53 408-10 408-79 384-142 337-201 289-260 213-307 110-341Z" horiz-adv-x="318" unicode="&#x2c;"/><glyph horiz-adv-x="503" unicode="&#x20;"/></font>
</defs>
</svg>
